Скачать через торрент музыку Hashem - A Lifetime To Love бесплатно без регистрации torrent

Статистика раздачи
Размер:  357 MB   |    Зарегистрирован:  3 года 4 месяца   |    .torrent скачан:  313 раз   |   
Раздают:  1  
   
 
Автор Сообщение

Galfimbul

avatar Galfimbul


Hashem - A Lifetime To Love (part 1)

Жанр: Enigmatic / Choral / Oriental
Год издания: 2002
Страна: France
Аудиокодек: FLAC (*.flac)
Тип рипа: tracks+.cue
Битрейт аудио: lossless
Продолжительность: 00:54:22
Источник (релизер): internet
Наличие сканов в содержимом раздачи: нет
Треклист:
01. Barou''h Hashem: God Bless
02. Eliyahou
03. Tsadik: The Just
04. Ygdal: Hey Man, Wazzup, Wake Up
05. Candle Lighting Friday
06. The Holy Book
07. Liberation: Yom
08. Eema: Mother
09. Yafa, Yafa: How Beautiful Life Is
10. Todah
11. Barou''h Hashem: God Bless - Unplugged
12. Tsadik: The Just - Unplugged
Exact Audio Copy V1.0 beta 3 from 29. August 2011

Отчёт EAC об извлечении, выполненном 20. марта 2013, 15:29

Hashem / A Lifetime To Love (Part 1)

Дисковод: TSSTcorpCDDVDW SH-S203D Adapter: 5 ID: 0

Режим чтения : ДостоверностьИспользование точного потока : ДаОтключение кэша аудио : ДаИспользование указателей C2 : Нет

Коррекция смещения при чтении : 6Способность читать области Lead-in и Lead-out : НетЗаполнение пропущенных сэмплов тишиной : ДаУдаление блоков с тишиной в начале и конце : НетПри вычислениях CRC использовались нулевые сэмплы : ДаИнтерфейс : Встроенный Win32-интерфейс для Win NT/2000Обработка зазоров : Добавлено к предыдущему треку

Выходной формат : Пользовательский кодировщикВыбранный битрейт : 1024 kBit/sКачество : ВысокийДобавление ID3-тега : НетУтилита сжатия : C:\Program Files\Exact Audio Copy\Flac\flac.exeДополнительные параметры : -V -8 -T "Genre=%genre%" -T "Artist=%artist%" -T "Title=%title%" -T "Album=%albumtitle%" -T "Date=%year%" -T "Tracknumber=%tracknr%" -T "Comment=YOUTRACKER" %source%

TOC извлечённого CD

Трек | Старт | Длительность | Начальный сектор | Конечный сектор --------------------------------------------------------------------- 1 | 0:00.00 | 4:27.72 | 0 | 20096 2 | 4:27.72 | 4:01.32 | 20097 | 38203 3 | 8:29.29 | 4:13.64 | 38204 | 57242 4 | 12:43.18 | 4:13.63 | 57243 | 76280 5 | 16:57.06 | 4:46.30 | 76281 | 97760 6 | 21:43.36 | 4:32.59 | 97761 | 118219 7 | 26:16.20 | 4:26.44 | 118220 | 138213 8 | 30:42.64 | 5:29.09 | 138214 | 162897 9 | 36:11.73 | 4:05.17 | 162898 | 181289 10 | 40:17.15 | 5:37.36 | 181290 | 206600 11 | 45:54.51 | 4:20.44 | 206601 | 226144 12 | 50:15.20 | 4:09.72 | 226145 | 244891

Трек 1

Имя файла C:\Mystico\Hashem - A Lifetime To Love (Part 1) (2002)\01 - Barou''h Hashem (God Bless).wav

Длина предзазора 0:00:02.00

Пиковый уровень 99.3 % Скорость извлечения 4.6 X Качество трека 100.0 % CRC теста 5F8496DC CRC копии 5F8496DC Трек не обнаружен в базе AccurateRip Копирование... OK

Трек 2

Имя файла C:\Mystico\Hashem - A Lifetime To Love (Part 1) (2002)\02 - Eliyahou.wav

Длина предзазора 0:00:03.01

Пиковый уровень 99.3 % Скорость извлечения 5.0 X Качество трека 100.0 % CRC теста 933B9F49 CRC копии 933B9F49 Трек не обнаружен в базе AccurateRip Копирование... OK

Трек 3

Имя файла C:\Mystico\Hashem - A Lifetime To Love (Part 1) (2002)\03 - Tsadik (The Just).wav

Длина предзазора 0:00:01.10

Пиковый уровень 99.4 % Скорость извлечения 5.5 X Качество трека 100.0 % CRC теста 9CAD7726 CRC копии 9CAD7726 Трек не обнаружен в базе AccurateRip Копирование... OK

Трек 4

Имя файла C:\Mystico\Hashem - A Lifetime To Love (Part 1) (2002)\04 - Ygdal (Hey Man... Wazzup... Wake Up...).wav

Длина предзазора 0:00:01.74

Пиковый уровень 99.3 % Скорость извлечения 5.8 X Качество трека 100.0 % CRC теста 7207A443 CRC копии 7207A443 Трек не обнаружен в базе AccurateRip Копирование... OK

Трек 5

Имя файла C:\Mystico\Hashem - A Lifetime To Love (Part 1) (2002)\05 - Candle Lighting Friday.wav

Длина предзазора 0:00:01.53

Пиковый уровень 99.3 % Скорость извлечения 6.4 X Качество трека 100.0 % CRC теста 96DC0142 CRC копии 96DC0142 Трек не обнаружен в базе AccurateRip Копирование... OK

Трек 6

Имя файла C:\Mystico\Hashem - A Lifetime To Love (Part 1) (2002)\06 - The Holy Book.wav

Длина предзазора 0:00:02.14

Пиковый уровень 99.3 % Скорость извлечения 6.7 X Качество трека 100.0 % CRC теста 40C90A25 CRC копии 40C90A25 Трек не обнаружен в базе AccurateRip Копирование... OK

Трек 7

Имя файла C:\Mystico\Hashem - A Lifetime To Love (Part 1) (2002)\07 - Liberation (Yom).wav

Длина предзазора 0:00:02.04

Пиковый уровень 99.3 % Скорость извлечения 5.7 X Качество трека 99.9 % CRC теста 4D51D9BB CRC копии 4D51D9BB Трек не обнаружен в базе AccurateRip Копирование... OK

Трек 8

Имя файла C:\Mystico\Hashem - A Lifetime To Love (Part 1) (2002)\08 - Eema (Mother).wav

Длина предзазора 0:00:02.24

Пиковый уровень 99.4 % Скорость извлечения 7.6 X Качество трека 100.0 % CRC теста F9980D59 CRC копии F9980D59 Трек не обнаружен в базе AccurateRip Копирование... OK

Трек 9

Имя файла C:\Mystico\Hashem - A Lifetime To Love (Part 1) (2002)\09 - Yafa, Yafa (How Beautiful Life Is).wav

Длина предзазора 0:00:02.04

Пиковый уровень 99.3 % Скорость извлечения 7.7 X Качество трека 100.0 % CRC теста 0FEDF796 CRC копии 0FEDF796 Трек не обнаружен в базе AccurateRip Копирование... OK

Трек 10

Имя файла C:\Mystico\Hashem - A Lifetime To Love (Part 1) (2002)\10 - Todah (Thanks).wav

Длина предзазора 0:00:02.58

Пиковый уровень 99.3 % Скорость извлечения 8.2 X Качество трека 100.0 % CRC теста C1EC5CE6 CRC копии C1EC5CE6 Трек не обнаружен в базе AccurateRip Копирование... OK

Трек 11

Имя файла C:\Mystico\Hashem - A Lifetime To Love (Part 1) (2002)\11 - Barou''h Hashem (God Bless - Unplugged).wav

Длина предзазора 0:00:01.73

Пиковый уровень 88.5 % Скорость извлечения 6.7 X Качество трека 99.9 % CRC теста 04AEE752 CRC копии 04AEE752 Трек не обнаружен в базе AccurateRip Копирование... OK

Трек 12

Имя файла C:\Mystico\Hashem - A Lifetime To Love (Part 1) (2002)\12 - Tsadik (The Just - Unplugged).wav

Длина предзазора 0:00:01.81

Пиковый уровень 88.5 % Скорость извлечения 8.4 X Качество трека 100.0 % CRC теста 8AF0AA40 CRC копии 8AF0AA40 Трек не обнаружен в базе AccurateRip Копирование... OK

Ни одного трека нет в базе AccurateRip

Ошибок не произошло

Конец отчёта

==== Контрольная сумма отчёта 6FA478837A8BF071854FF89BDE1800CC053C3AC82E9CE9C096502D05C5952F40 ====
REM GENRE "New Age"REM DATE 2002REM DISCID A20CC10CREM COMMENT "ExactAudioCopy v1.0b3"PERFORMER "Hashem"TITLE "A Lifetime To Love (Part 1)"FILE "01 - Barou''h Hashem (God Bless).wav" WAVE TRACK 01 AUDIO TITLE "Barou''h Hashem (God Bless)" PERFORMER "Hashem" ISRC H2?M30180030 INDEX 01 00:00:00 TRACK 02 AUDIO TITLE "Eliyahou" PERFORMER "Hashem" ISRC H2?M30180040 INDEX 00 04:24:71FILE "02 - Eliyahou.wav" WAVE INDEX 01 00:00:00 TRACK 03 AUDIO TITLE "Tsadik (The Just)" PERFORMER "Hashem" ISRC H2?M30180050 INDEX 00 04:00:24FILE "03 - Tsadik (The Just).wav" WAVE INDEX 01 00:00:00 TRACK 04 AUDIO TITLE "Ygdal (Hey Man... Wazzup... Wake Up...)" PERFORMER "Hashem" ISRC H2?M30180060 INDEX 00 04:12:08FILE "04 - Ygdal (Hey Man... Wazzup... Wake Up...).wav" WAVE INDEX 01 00:00:00 TRACK 05 AUDIO TITLE "Candle Lighting Friday" PERFORMER "Hashem" ISRC H2?M30180070 INDEX 00 04:12:23FILE "05 - Candle Lighting Friday.wav" WAVE INDEX 01 00:00:00 TRACK 06 AUDIO TITLE "The Holy Book" PERFORMER "Hashem" ISRC H2?M30180080 INDEX 00 04:44:19FILE "06 - The Holy Book.wav" WAVE INDEX 01 00:00:00 TRACK 07 AUDIO TITLE "Liberation (Yom)" PERFORMER "Hashem" ISRC H2?M30180090 INDEX 00 04:30:56FILE "07 - Liberation (Yom).wav" WAVE INDEX 01 00:00:00 TRACK 08 AUDIO TITLE "Eema (Mother)" PERFORMER "Hashem" ISRC H2?M30180100 INDEX 00 04:24:26FILE "08 - Eema (Mother).wav" WAVE INDEX 01 00:00:00 TRACK 09 AUDIO TITLE "Yafa, Yafa (How Beautiful Life Is)" PERFORMER "Hashem" ISRC H2?M30180110 INDEX 00 05:27:06FILE "09 - Yafa, Yafa (How Beautiful Life Is).wav" WAVE INDEX 01 00:00:00 TRACK 10 AUDIO TITLE "Todah (Thanks)" PERFORMER "Hashem" ISRC H2?M30180120 INDEX 00 04:02:48FILE "10 - Todah (Thanks).wav" WAVE INDEX 01 00:00:00 TRACK 11 AUDIO TITLE "Barou''h Hashem (God Bless - Unplugged)" PERFORMER "Hashem" ISRC H2?M30180130 INDEX 00 05:35:56FILE "11 - Barou''h Hashem (God Bless - Unplugged).wav" WAVE INDEX 01 00:00:00 TRACK 12 AUDIO TITLE "Tsadik (The Just - Unplugged)" PERFORMER "Hashem" ISRC H2?M30180140 INDEX 00 04:18:58FILE "12 - Tsadik (The Just - Unplugged).wav" WAVE INDEX 01 00:00:00


Трекер:  [ 05-Янв-2014 15:59 ]

  

Скачать .torrent

Размер .torrent файла 15 KB


Размер: 357 MB
Хэш (hash) релиза: c7c40e0cd9fbd9f56da1150ebea9cffef54c96b8

Еще никто не оставлял запись к записи скачать торрент Hashem - A Lifetime To Love . Будь первым!

!Обратная связь