Скачать через торрент музыку бесплатно без регистрации torrent

Если у вас наблюдаются проблемы со скриншотами, переходом по ссылками, скачиванием торрентов - проблемы в блокировщике рекламы AdBlock. #хорошегоДня!


Статистика раздачи
Размер:  1.04 GB   |    Зарегистрирован:  3 года 10 месяцев   |    .torrent скачан:  154 раза   |   
Раздают:  2  
   
Загрузка...
 
Автор Сообщение

Galfimbul

avatar Galfimbul


♦ Chet Baker - Love Walked In {4CD, Box Set} ♦

Жанр: Cool
Носитель: CD
Страна-производитель диска: Germany
Год издания: 2006
Издатель (лейбл): Membran Music
Номер по каталогу: 223610-354
Аудиокодек: FLAC (*.flac)
Тип рипа: tracks+.cue
Битрейт аудио: lossless
Продолжительность: 03:38:12
Источник (релизер): artmuss
Наличие сканов в содержимом раздачи: нет
Треклист:

01. Love Walked In [02:59]
02. You Better Go Now [03:06]
03. I Married An Angel [03:37]
04. I Love You [02:49]
05. Why Shouldn''t I? [03:36]
06. The Wind [04:02]
07. Trickleydidlier [02:41]
08. There''s A Small Hotel [03:47]
09. These Foolish Things [04:43]
10. How About You! [04:29]
11. I''ll Remember April [05:53]
12. Summertime [04:14]
13. Everything Happens To Me [03:40]
14. All The Things You Are [05:43]
15. Once In A while [05:32]
Exact Audio Copy V1.0 beta 3 from 29. August 2011

EAC extraction logfile from 11. December 2013, 23:35

Chet Baker / Love Walked In Disc 1

Used drive : PLEXTOR DVDR PX-L890SA Adapter: 0 ID: 0

Read mode : SecureUtilize accurate stream : YesDefeat audio cache : YesMake use of C2 pointers : No

Read offset correction : 6Overread into Lead-In and Lead-Out : NoFill up missing offset samples with silence : YesDelete leading and trailing silent blocks : NoNull samples used in CRC calculations : YesUsed interface : Native Win32 interface for Win NT & 2000Gap handling : Appended to previous track

Used output format : User Defined EncoderSelected bitrate : 896 kBit/sQuality : HighAdd ID3 tag : NoCommand line compressor : C:\Program Files (x86)\FLAC\flac.exeAdditional command line options : -8 -V -T "ARTIST=%artist%" -T "TITLE=%title%" -T "ALBUM=%albumtitle%" -T "DATE=%year%" -T "TRACKNUMBER=%tracknr%" -T "GENRE=%genre%" -T "PERFORMER=%albuminterpret%" -T "COMPOSER=%composer%" %haslyrics%--tag-from-file=LYRICS="%lyricsfile%"%haslyrics% -T "ALBUMARTIST=%albumartist%" -T "DISCNUMBER=%cdnumber%" -T "TOTALDISCS=%totalcds%" -T "TOTALTRACKS=%numtracks%" -T "COMMENT=%comment%" %source% -o %dest%

TOC of the extracted CD

Track | Start | Length | Start sector | End sector --------------------------------------------------------- 1 | 0:00.00 | 2:59.21 | 0 | 13445 2 | 2:59.21 | 3:06.49 | 13446 | 27444 3 | 6:05.70 | 3:37.70 | 27445 | 43789 4 | 9:43.65 | 2:49.29 | 43790 | 56493 5 | 12:33.19 | 3:36.24 | 56494 | 72717 6 | 16:09.43 | 4:02.40 | 72718 | 90907 7 | 20:12.08 | 2:41.17 | 90908 | 102999 8 | 22:53.25 | 3:47.00 | 103000 | 120024 9 | 26:40.25 | 4:43.22 | 120025 | 141271 10 | 31:23.47 | 4:29.20 | 141272 | 161466 11 | 35:52.67 | 5:53.26 | 161467 | 187967 12 | 41:46.18 | 4:14.71 | 187968 | 207088 13 | 46:01.14 | 3:40.17 | 207089 | 223605 14 | 49:41.31 | 5:43.32 | 223606 | 249362 15 | 55:24.63 | 5:32.41 | 249363 | 274303

Track 1

Filename E:\PT\Chet Baker - Love Walked In\Disc 1of4\01.Love Walked In.wav

Pre-gap length 0:00:02.00

Peak level 99.0 % Extraction speed 2.6 X Track quality 99.9 % Test CRC D162EC5B Copy CRC D162EC5B Accurately ripped (confidence 2) [61AC9C3F] (AR v2) Copy OK

Track 2

Filename E:\PT\Chet Baker - Love Walked In\Disc 1of4\02.You Better Go Now.wav

Peak level 89.2 % Extraction speed 3.6 X Track quality 100.0 % Test CRC 81E3950C Copy CRC 81E3950C Accurately ripped (confidence 2) [53101CC6] (AR v2) Copy OK

Track 3

Filename E:\PT\Chet Baker - Love Walked In\Disc 1of4\03.I Married An Angel.wav

Peak level 94.7 % Extraction speed 4.0 X Track quality 100.0 % Test CRC D1530D02 Copy CRC D1530D02 Accurately ripped (confidence 2) [03FFE281] (AR v2) Copy OK

Track 4

Filename E:\PT\Chet Baker - Love Walked In\Disc 1of4\04.I Love You.wav

Peak level 95.2 % Extraction speed 4.1 X Track quality 100.0 % Test CRC 658A3744 Copy CRC 658A3744 Accurately ripped (confidence 2) [B959EEC7] (AR v2) Copy OK

Track 5

Filename E:\PT\Chet Baker - Love Walked In\Disc 1of4\05.Why Shouldn''t I.wav

Peak level 96.0 % Extraction speed 4.5 X Track quality 100.0 % Test CRC 1AB195A3 Copy CRC 1AB195A3 Accurately ripped (confidence 2) [52F4C12F] (AR v2) Copy OK

Track 6

Filename E:\PT\Chet Baker - Love Walked In\Disc 1of4\06.The Wind.wav

Peak level 99.0 % Extraction speed 4.8 X Track quality 100.0 % Test CRC 10E0F618 Copy CRC 10E0F618 Accurately ripped (confidence 2) [5AD7B2C8] (AR v2) Copy OK

Track 7

Filename E:\PT\Chet Baker - Love Walked In\Disc 1of4\07.Trickleydidlier.wav

Peak level 90.6 % Extraction speed 4.7 X Track quality 100.0 % Test CRC 299ECF44 Copy CRC 299ECF44 Accurately ripped (confidence 2) [93DDDFA5] (AR v2) Copy OK

Track 8

Filename E:\PT\Chet Baker - Love Walked In\Disc 1of4\08.There''s A Small Hotel.wav

Peak level 80.7 % Extraction speed 5.2 X Track quality 100.0 % Test CRC E93F4212 Copy CRC E93F4212 Accurately ripped (confidence 2) [73E035D9] (AR v2) Copy OK

Track 9

Filename E:\PT\Chet Baker - Love Walked In\Disc 1of4\09.These Foolish Things.wav

Peak level 77.5 % Extraction speed 5.7 X Track quality 100.0 % Test CRC DAB44D17 Copy CRC DAB44D17 Accurately ripped (confidence 2) [AD7B1BDF] (AR v2) Copy OK

Track 10

Filename E:\PT\Chet Baker - Love Walked In\Disc 1of4\10.How About You!.wav

Peak level 72.4 % Extraction speed 4.8 X Track quality 99.9 % Test CRC B9CA457E Copy CRC B9CA457E Accurately ripped (confidence 2) [CE67E3A6] (AR v2) Copy OK

Track 11

Filename E:\PT\Chet Baker - Love Walked In\Disc 1of4\11.I''ll Remember April.wav

Peak level 82.6 % Extraction speed 6.3 X Track quality 100.0 % Test CRC 48F18839 Copy CRC 48F18839 Accurately ripped (confidence 2) [258A24A3] (AR v2) Copy OK

Track 12

Filename E:\PT\Chet Baker - Love Walked In\Disc 1of4\12.Summertime.wav

Peak level 79.5 % Extraction speed 5.1 X Track quality 99.9 % Test CRC E7B61F4F Copy CRC E7B61F4F Accurately ripped (confidence 2) [B5BDFA4F] (AR v2) Copy OK

Track 13

Filename E:\PT\Chet Baker - Love Walked In\Disc 1of4\13.Everything Happens To Me.wav

Peak level 80.8 % Extraction speed 6.4 X Track quality 100.0 % Test CRC 6030C2B3 Copy CRC 6030C2B3 Accurately ripped (confidence 2) [38144328] (AR v2) Copy OK

Track 14

Filename E:\PT\Chet Baker - Love Walked In\Disc 1of4\14.All The Things You Are.wav

Peak level 86.2 % Extraction speed 7.0 X Track quality 100.0 % Test CRC 6B5B2375 Copy CRC 6B5B2375 Accurately ripped (confidence 2) [721F048C] (AR v2) Copy OK

Track 15

Filename E:\PT\Chet Baker - Love Walked In\Disc 1of4\15.Once In A while.wav

Peak level 88.7 % Extraction speed 7.2 X Track quality 100.0 % Test CRC 8298A705 Copy CRC 8298A705 Accurately ripped (confidence 2) [2D2BCE3C] (AR v2) Copy OK

All tracks accurately ripped

No errors occurred

End of status report

---- CUETools DB Plugin V2.1.5

[CTDB TOCID: 7u8zCfhMY5tM0HVdR2EIHNohRIU-] foundSubmit result: 7u8zCfhMY5tM0HVdR2EIHNohRIU- has been confirmedTrack | CTDB Status 1 | (3/3) Accurately ripped 2 | (3/3) Accurately ripped 3 | (3/3) Accurately ripped 4 | (3/3) Accurately ripped 5 | (3/3) Accurately ripped 6 | (3/3) Accurately ripped 7 | (3/3) Accurately ripped 8 | (3/3) Accurately ripped 9 | (3/3) Accurately ripped 10 | (3/3) Accurately ripped 11 | (3/3) Accurately ripped 12 | (3/3) Accurately ripped 13 | (3/3) Accurately ripped 14 | (3/3) Accurately ripped 15 | (3/3) Accurately ripped

==== Log checksum 01A1E6C4177E47653817F6437790DD09AB211A7BB7FE733618C77E1C3523D77C ====
REM GENRE JazzREM DATE 2006REM DISCID D80E490FREM COMMENT "ExactAudioCopy v1.0b3"PERFORMER "Chet Baker"TITLE "Love Walked In Disc 1"FILE "01.Love Walked In.wav" WAVE TRACK 01 AUDIO TITLE "Love Walked In" PERFORMER "Chet Baker" FLAGS DCP INDEX 01 00:00:00FILE "02.You Better Go Now.wav" WAVE TRACK 02 AUDIO TITLE "You Better Go Now" PERFORMER "Chet Baker" FLAGS DCP INDEX 01 00:00:00FILE "03.I Married An Angel.wav" WAVE TRACK 03 AUDIO TITLE "I Married An Angel" PERFORMER "Chet Baker" FLAGS DCP INDEX 01 00:00:00FILE "04.I Love You.wav" WAVE TRACK 04 AUDIO TITLE "I Love You" PERFORMER "Chet Baker" FLAGS DCP INDEX 01 00:00:00FILE "05.Why Shouldn''t I.wav" WAVE TRACK 05 AUDIO TITLE "Why Shouldn''t I?" PERFORMER "Chet Baker" FLAGS DCP INDEX 01 00:00:00FILE "06.The Wind.wav" WAVE TRACK 06 AUDIO TITLE "The Wind" PERFORMER "Chet Baker" FLAGS DCP INDEX 01 00:00:00FILE "07.Trickleydidlier.wav" WAVE TRACK 07 AUDIO TITLE "Trickleydidlier" PERFORMER "Chet Baker" FLAGS DCP INDEX 01 00:00:00FILE "08.There''s A Small Hotel.wav" WAVE TRACK 08 AUDIO TITLE "There''s A Small Hotel" PERFORMER "Chet Baker" FLAGS DCP INDEX 01 00:00:00FILE "09.These Foolish Things.wav" WAVE TRACK 09 AUDIO TITLE "These Foolish Things" PERFORMER "Chet Baker" FLAGS DCP INDEX 01 00:00:00FILE "10.How About You!.wav" WAVE TRACK 10 AUDIO TITLE "How About You!" PERFORMER "Chet Baker" FLAGS DCP INDEX 01 00:00:00FILE "11.I''ll Remember April.wav" WAVE TRACK 11 AUDIO TITLE "I''ll Remember April" PERFORMER "Chet Baker" FLAGS DCP INDEX 01 00:00:00FILE "12.Summertime.wav" WAVE TRACK 12 AUDIO TITLE "Summertime" PERFORMER "Chet Baker" FLAGS DCP INDEX 01 00:00:00FILE "13.Everything Happens To Me.wav" WAVE TRACK 13 AUDIO TITLE "Everything Happens To Me" PERFORMER "Chet Baker" FLAGS DCP INDEX 01 00:00:00FILE "14.All The Things You Are.wav" WAVE TRACK 14 AUDIO TITLE "All The Things You Are" PERFORMER "Chet Baker" FLAGS DCP INDEX 01 00:00:00FILE "15.Once In A while.wav" WAVE TRACK 15 AUDIO TITLE "Once In A while" PERFORMER "Chet Baker" FLAGS DCP INDEX 01 00:00:00
[b]Треклист:

01. Rondette [02:10]
02. Mid-Forte [03:08]
03. Sad Walk [04:14]
04. Re-search [04:59]
05. Just Do [04:11]
06. Piece Caprice [05:10]
07. Pomp [04:41]
08. The Girl From Greenland [05:14]
09. Brash [05:55]
10. Chet [03:09]
11. Dinah [03:02]
12. Vline - 1st version [03:03]
13. In Memory of Dick [02:55]
Exact Audio Copy V1.0 beta 3 from 29. August 2011

EAC extraction logfile from 12. December 2013, 0:06

Chet Baker / Love Walked In Disc 2

Used drive : PLEXTOR DVDR PX-L890SA Adapter: 0 ID: 0

Read mode : SecureUtilize accurate stream : YesDefeat audio cache : YesMake use of C2 pointers : No

Read offset correction : 6Overread into Lead-In and Lead-Out : NoFill up missing offset samples with silence : YesDelete leading and trailing silent blocks : NoNull samples used in CRC calculations : YesUsed interface : Native Win32 interface for Win NT & 2000Gap handling : Appended to previous track

Used output format : User Defined EncoderSelected bitrate : 896 kBit/sQuality : HighAdd ID3 tag : NoCommand line compressor : C:\Program Files (x86)\FLAC\flac.exeAdditional command line options : -8 -V -T "ARTIST=%artist%" -T "TITLE=%title%" -T "ALBUM=%albumtitle%" -T "DATE=%year%" -T "TRACKNUMBER=%tracknr%" -T "GENRE=%genre%" -T "PERFORMER=%albuminterpret%" -T "COMPOSER=%composer%" %haslyrics%--tag-from-file=LYRICS="%lyricsfile%"%haslyrics% -T "ALBUMARTIST=%albumartist%" -T "DISCNUMBER=%cdnumber%" -T "TOTALDISCS=%totalcds%" -T "TOTALTRACKS=%numtracks%" -T "COMMENT=%comment%" %source% -o %dest%

TOC of the extracted CD

Track | Start | Length | Start sector | End sector --------------------------------------------------------- 1 | 0:00.00 | 2:10.46 | 0 | 9795 2 | 2:10.46 | 3:08.02 | 9796 | 23897 3 | 5:18.48 | 4:14.33 | 23898 | 42980 4 | 9:33.06 | 4:59.58 | 42981 | 65463 5 | 14:32.64 | 4:11.69 | 65464 | 84357 6 | 18:44.58 | 5:10.21 | 84358 | 107628 7 | 23:55.04 | 4:41.26 | 107629 | 128729 8 | 28:36.30 | 5:14.64 | 128730 | 152343 9 | 33:51.19 | 5:55.03 | 152344 | 178971 10 | 39:46.22 | 3:09.50 | 178972 | 193196 11 | 42:55.72 | 3:02.13 | 193197 | 206859 12 | 45:58.10 | 3:03.47 | 206860 | 220631 13 | 49:01.57 | 2:55.52 | 220632 | 233808

Track 1

Filename E:\PT\Chet Baker - Love Walked In\Disc 2of4\01.Rondette.wav

Pre-gap length 0:00:02.00

Peak level 86.3 % Extraction speed 3.0 X Track quality 100.0 % Test CRC 0390401F Copy CRC 0390401F Accurately ripped (confidence 2) [FEBD9AF2] (AR v2) Copy OK

Track 2

Filename E:\PT\Chet Baker - Love Walked In\Disc 2of4\02.Mid-Forte.wav

Peak level 85.7 % Extraction speed 3.6 X Track quality 100.0 % Test CRC 041C266E Copy CRC 041C266E Accurately ripped (confidence 2) [14F8DD96] (AR v2) Copy OK

Track 3

Filename E:\PT\Chet Baker - Love Walked In\Disc 2of4\03.Sad Walk.wav

Peak level 75.3 % Extraction speed 4.1 X Track quality 100.0 % Test CRC 99C20AEB Copy CRC 99C20AEB Accurately ripped (confidence 2) [809A214E] (AR v2) Copy OK

Track 4

Filename E:\PT\Chet Baker - Love Walked In\Disc 2of4\04.Re-search.wav

Peak level 96.9 % Extraction speed 3.8 X Track quality 99.9 % Test CRC 64E7AC6E Copy CRC 64E7AC6E Accurately ripped (confidence 2) [085D3AE9] (AR v2) Copy OK

Track 5

Filename E:\PT\Chet Baker - Love Walked In\Disc 2of4\05.Just Do.wav

Peak level 75.1 % Extraction speed 4.7 X Track quality 100.0 % Test CRC 2CE0E93E Copy CRC 2CE0E93E Accurately ripped (confidence 2) [8CDBBD8B] (AR v2) Copy OK

Track 6

Filename E:\PT\Chet Baker - Love Walked In\Disc 2of4\06.Piece Caprice.wav

Peak level 75.6 % Extraction speed 5.2 X Track quality 100.0 % Test CRC DF264A46 Copy CRC DF264A46 Accurately ripped (confidence 2) [658AE969] (AR v2) Copy OK

Track 7

Filename E:\PT\Chet Baker - Love Walked In\Disc 2of4\07.Pomp.wav

Peak level 97.1 % Extraction speed 5.5 X Track quality 100.0 % Test CRC BDEE6E11 Copy CRC BDEE6E11 Accurately ripped (confidence 2) [B29EB0AB] (AR v2) Copy OK

Track 8

Filename E:\PT\Chet Baker - Love Walked In\Disc 2of4\08.The Girl From Greenland.wav

Peak level 92.2 % Extraction speed 5.8 X Track quality 100.0 % Test CRC 670AF249 Copy CRC 670AF249 Accurately ripped (confidence 2) [FCAF0165] (AR v2) Copy OK

Track 9

Filename E:\PT\Chet Baker - Love Walked In\Disc 2of4\09.Brash.wav

Peak level 76.4 % Extraction speed 6.2 X Track quality 100.0 % Test CRC BA21BE7E Copy CRC BA21BE7E Accurately ripped (confidence 2) [61CF8C2A] (AR v2) Copy OK

Track 10

Filename E:\PT\Chet Baker - Love Walked In\Disc 2of4\10.Chet.wav

Peak level 75.6 % Extraction speed 5.9 X Track quality 100.0 % Test CRC 87FBD0F6 Copy CRC 87FBD0F6 Accurately ripped (confidence 2) [CE8E22CE] (AR v2) Copy OK

Track 11

Filename E:\PT\Chet Baker - Love Walked In\Disc 2of4\11.Dinah.wav

Peak level 76.2 % Extraction speed 6.1 X Track quality 100.0 % Test CRC 05FD4B68 Copy CRC 05FD4B68 Accurately ripped (confidence 2) [F1529536] (AR v2) Copy OK

Track 12

Filename E:\PT\Chet Baker - Love Walked In\Disc 2of4\12.Vline - 1st version.wav

Peak level 89.1 % Extraction speed 6.2 X Track quality 100.0 % Test CRC BBCAD6AC Copy CRC BBCAD6AC Accurately ripped (confidence 2) [8DC08162] (AR v2) Copy OK

Track 13

Filename E:\PT\Chet Baker - Love Walked In\Disc 2of4\13.In Memory of Dick.wav

Peak level 60.1 % Extraction speed 6.3 X Track quality 100.0 % Test CRC FDC39107 Copy CRC FDC39107 Accurately ripped (confidence 2) [0F781EDB] (AR v2) Copy OK

All tracks accurately ripped

No errors occurred

End of status report

---- CUETools DB Plugin V2.1.5

[CTDB TOCID: zbP6dpvKgvaOMWp8rmPs5i9I6Tc-] foundSubmit result: zbP6dpvKgvaOMWp8rmPs5i9I6Tc- has been confirmedTrack | CTDB Status 1 | (2/2) Accurately ripped 2 | (2/2) Accurately ripped 3 | (2/2) Accurately ripped 4 | (2/2) Accurately ripped 5 | (2/2) Accurately ripped 6 | (2/2) Accurately ripped 7 | (2/2) Accurately ripped 8 | (2/2) Accurately ripped 9 | (2/2) Accurately ripped 10 | (2/2) Accurately ripped 11 | (2/2) Accurately ripped 12 | (2/2) Accurately ripped 13 | (2/2) Accurately ripped

==== Log checksum 819BDAF7ED0975E7EE468DF1606172EA1B7AB9A2BA69DD2CF77751B6BAC5C20B ====
REM GENRE JazzREM DATE 2006REM DISCID AE0C2D0DREM COMMENT "ExactAudioCopy v1.0b3"PERFORMER "Chet Baker"TITLE "Love Walked In Disc 2"FILE "01.Rondette.wav" WAVE TRACK 01 AUDIO TITLE "Rondette" PERFORMER "Chet Baker" FLAGS DCP INDEX 01 00:00:00FILE "02.Mid-Forte.wav" WAVE TRACK 02 AUDIO TITLE "Mid-Forte" PERFORMER "Chet Baker" FLAGS DCP INDEX 01 00:00:00FILE "03.Sad Walk.wav" WAVE TRACK 03 AUDIO TITLE "Sad Walk" PERFORMER "Chet Baker" FLAGS DCP INDEX 01 00:00:00FILE "04.Re-search.wav" WAVE TRACK 04 AUDIO TITLE "Re-search" PERFORMER "Chet Baker" FLAGS DCP INDEX 01 00:00:00FILE "05.Just Do.wav" WAVE TRACK 05 AUDIO TITLE "Just Do" PERFORMER "Chet Baker" FLAGS DCP INDEX 01 00:00:00FILE "06.Piece Caprice.wav" WAVE TRACK 06 AUDIO TITLE "Piece Caprice" PERFORMER "Chet Baker" FLAGS DCP INDEX 01 00:00:00FILE "07.Pomp.wav" WAVE TRACK 07 AUDIO TITLE "Pomp" PERFORMER "Chet Baker" FLAGS DCP INDEX 01 00:00:00FILE "08.The Girl From Greenland.wav" WAVE TRACK 08 AUDIO TITLE "The Girl From Greenland" PERFORMER "Chet Baker" FLAGS DCP INDEX 01 00:00:00FILE "09.Brash.wav" WAVE TRACK 09 AUDIO TITLE "Brash" PERFORMER "Chet Baker" FLAGS DCP INDEX 01 00:00:00FILE "10.Chet.wav" WAVE TRACK 10 AUDIO TITLE "Chet" PERFORMER "Chet Baker" FLAGS DCP INDEX 01 00:00:00FILE "11.Dinah.wav" WAVE TRACK 11 AUDIO TITLE "Dinah" PERFORMER "Chet Baker" FLAGS DCP INDEX 01 00:00:00FILE "12.Vline - 1st version.wav" WAVE TRACK 12 AUDIO TITLE "Vline - 1st version" PERFORMER "Chet Baker" FLAGS DCP INDEX 01 00:00:00FILE "13.In Memory of Dick.wav" WAVE TRACK 13 AUDIO TITLE "In Memory of Dick" PERFORMER "Chet Baker" FLAGS DCP INDEX 01 00:00:00
[b]Треклист:

01. Revelation [04:01]
02. Halema [03:52]
03. Something For Liza [04:07]
04. Slightly Above Moderate [07:01]
05. Lucius Lu [05:36]
06. To Mickey'' Memory [05:15]
07. Worryin'' The Life Out Of Me [03:01]
08. Medium Rock [05:32]
09. Jumping'' Off A Clef [04:56]
10. Chippyin [03:21]
11. Pawnee Junction [04:02]
12. Line For Lyons [02:50]
13. Music To Dance By [04:37]
14. To Mickey''s Memory Alt. Take [05:23]
Exact Audio Copy V1.0 beta 3 from 29. August 2011

EAC extraction logfile from 12. December 2013, 0:36

Chet Baker / Love Walked In Disc 3

Used drive : PLEXTOR DVDR PX-L890SA Adapter: 0 ID: 0

Read mode : SecureUtilize accurate stream : YesDefeat audio cache : YesMake use of C2 pointers : No

Read offset correction : 6Overread into Lead-In and Lead-Out : NoFill up missing offset samples with silence : YesDelete leading and trailing silent blocks : NoNull samples used in CRC calculations : YesUsed interface : Native Win32 interface for Win NT & 2000Gap handling : Appended to previous track

Used output format : User Defined EncoderSelected bitrate : 896 kBit/sQuality : HighAdd ID3 tag : NoCommand line compressor : C:\Program Files (x86)\FLAC\flac.exeAdditional command line options : -8 -V -T "ARTIST=%artist%" -T "TITLE=%title%" -T "ALBUM=%albumtitle%" -T "DATE=%year%" -T "TRACKNUMBER=%tracknr%" -T "GENRE=%genre%" -T "PERFORMER=%albuminterpret%" -T "COMPOSER=%composer%" %haslyrics%--tag-from-file=LYRICS="%lyricsfile%"%haslyrics% -T "ALBUMARTIST=%albumartist%" -T "DISCNUMBER=%cdnumber%" -T "TOTALDISCS=%totalcds%" -T "TOTALTRACKS=%numtracks%" -T "COMMENT=%comment%" %source% -o %dest%

TOC of the extracted CD

Track | Start | Length | Start sector | End sector --------------------------------------------------------- 1 | 0:00.00 | 4:01.01 | 0 | 18075 2 | 4:01.01 | 3:52.31 | 18076 | 35506 3 | 7:53.32 | 4:07.35 | 35507 | 54066 4 | 12:00.67 | 7:01.11 | 54067 | 85652 5 | 19:02.03 | 5:36.58 | 85653 | 110910 6 | 24:38.61 | 5:15.59 | 110911 | 134594 7 | 29:54.45 | 3:01.31 | 134595 | 148200 8 | 32:56.01 | 5:32.53 | 148201 | 173153 9 | 38:28.54 | 4:56.57 | 173154 | 195410 10 | 43:25.36 | 3:21.72 | 195411 | 210557 11 | 46:47.33 | 4:02.35 | 210558 | 228742 12 | 50:49.68 | 2:50.09 | 228743 | 241501 13 | 53:40.02 | 4:37.01 | 241502 | 262277 14 | 58:17.03 | 5:23.57 | 262278 | 286559

Track 1

Filename E:\PT\Chet Baker - Love Walked In\Disc 3of4\01.Revelation.wav

Pre-gap length 0:00:02.00

Peak level 98.8 % Extraction speed 2.9 X Track quality 99.9 % Test CRC 42626384 Copy CRC 42626384 Accurately ripped (confidence 2) [7619857B] (AR v2) Copy OK

Track 2

Filename E:\PT\Chet Baker - Love Walked In\Disc 3of4\02.Halema.wav

Peak level 99.0 % Extraction speed 3.2 X Track quality 99.9 % Test CRC FA7C0E66 Copy CRC FA7C0E66 Accurately ripped (confidence 2) [2DBBA50D] (AR v2) Copy OK

Track 3

Filename E:\PT\Chet Baker - Love Walked In\Disc 3of4\03.Something For Liza.wav

Peak level 80.0 % Extraction speed 4.3 X Track quality 100.0 % Test CRC E96F64E8 Copy CRC E96F64E8 Accurately ripped (confidence 2) [991A3E75] (AR v2) Copy OK

Track 4

Filename E:\PT\Chet Baker - Love Walked In\Disc 3of4\04.Slightly Above Moderate.wav

Peak level 89.2 % Extraction speed 5.0 X Track quality 100.0 % Test CRC E979339F Copy CRC E979339F Accurately ripped (confidence 2) [43A22588] (AR v2) Copy OK

Track 5

Filename E:\PT\Chet Baker - Love Walked In\Disc 3of4\05.Lucius Lu.wav

Peak level 99.0 % Extraction speed 5.3 X Track quality 100.0 % Test CRC B4E6112D Copy CRC B4E6112D Accurately ripped (confidence 2) [EE4EB3AF] (AR v2) Copy OK

Track 6

Filename E:\PT\Chet Baker - Love Walked In\Disc 3of4\06.To Mickey'' Memory.wav

Peak level 81.7 % Extraction speed 5.6 X Track quality 100.0 % Test CRC CD5BD519 Copy CRC CD5BD519 Accurately ripped (confidence 2) [7C0F27F9] (AR v2) Copy OK

Track 7

Filename E:\PT\Chet Baker - Love Walked In\Disc 3of4\07.Worryin'' The Life Out Of Me.wav

Peak level 99.0 % Extraction speed 5.3 X Track quality 100.0 % Test CRC FC190B6F Copy CRC FC190B6F Accurately ripped (confidence 2) [0565CFFB] (AR v2) Copy OK

Track 8

Filename E:\PT\Chet Baker - Love Walked In\Disc 3of4\08.Medium Rock.wav

Peak level 75.9 % Extraction speed 6.0 X Track quality 100.0 % Test CRC B0754F52 Copy CRC B0754F52 Accurately ripped (confidence 2) [661CAC55] (AR v2) Copy OK

Track 9

Filename E:\PT\Chet Baker - Love Walked In\Disc 3of4\09.Jumping'' Off A Clef.wav

Peak level 77.5 % Extraction speed 6.3 X Track quality 100.0 % Test CRC 8BE2E38A Copy CRC 8BE2E38A Accurately ripped (confidence 2) [7116B2E7] (AR v2) Copy OK

Track 10

Filename E:\PT\Chet Baker - Love Walked In\Disc 3of4\10.Chippyin.wav

Peak level 83.5 % Extraction speed 6.1 X Track quality 100.0 % Test CRC 6462DB4C Copy CRC 6462DB4C Accurately ripped (confidence 2) [6EC6C02E] (AR v2) Copy OK

Track 11

Filename E:\PT\Chet Baker - Love Walked In\Disc 3of4\11.Pawnee Junction.wav

Peak level 99.0 % Extraction speed 6.5 X Track quality 100.0 % Test CRC FEBCDB91 Copy CRC FEBCDB91 Accurately ripped (confidence 2) [D011F26B] (AR v2) Copy OK

Track 12

Filename E:\PT\Chet Baker - Love Walked In\Disc 3of4\12.Line For Lyons.wav

Peak level 77.7 % Extraction speed 6.2 X Track quality 100.0 % Test CRC 0A9D5AB0 Copy CRC 0A9D5AB0 Accurately ripped (confidence 2) [A240ED48] (AR v2) Copy OK

Track 13

Filename E:\PT\Chet Baker - Love Walked In\Disc 3of4\13.Music To Dance By.wav

Peak level 96.9 % Extraction speed 5.9 X Track quality 100.0 % Test CRC 1E205220 Copy CRC 1E205220 Accurately ripped (confidence 2) [A652F0DE] (AR v2) Copy OK

Track 14

Filename E:\PT\Chet Baker - Love Walked In\Disc 3of4\14.To Mickey''s Memory Alt. Take.wav

Peak level 86.8 % Extraction speed 5.7 X Track quality 99.9 % Test CRC 185C0186 Copy CRC 185C0186 Accurately ripped (confidence 2) [FBCBBBCD] (AR v2) Copy OK

All tracks accurately ripped

No errors occurred

End of status report

---- CUETools DB Plugin V2.1.5

[CTDB TOCID: UyKST9Ftc5DrR9FV0WBVcQ4vDIQ-] foundSubmit result: UyKST9Ftc5DrR9FV0WBVcQ4vDIQ- has been confirmedTrack | CTDB Status 1 | (2/2) Accurately ripped 2 | (2/2) Accurately ripped 3 | (2/2) Accurately ripped 4 | (2/2) Accurately ripped 5 | (2/2) Accurately ripped 6 | (2/2) Accurately ripped 7 | (2/2) Accurately ripped 8 | (2/2) Accurately ripped 9 | (2/2) Accurately ripped 10 | (2/2) Accurately ripped 11 | (2/2) Accurately ripped 12 | (2/2) Accurately ripped 13 | (2/2) Accurately ripped 14 | (2/2) Accurately ripped

==== Log checksum 3DC5CEA5D447AA1DD5EE97A9324D8959BE39A028615B87DFD47F5887CC6B7767 ====
REM GENRE JazzREM DATE 2006REM DISCID C00EEC0EREM COMMENT "ExactAudioCopy v1.0b3"PERFORMER "Chet Baker"TITLE "Love Walked In Disc 3"FILE "01.Revelation.wav" WAVE TRACK 01 AUDIO TITLE "Revelation" PERFORMER "Chet Baker" FLAGS DCP INDEX 01 00:00:00FILE "02.Halema.wav" WAVE TRACK 02 AUDIO TITLE "Halema" PERFORMER "Chet Baker" FLAGS DCP INDEX 01 00:00:00FILE "03.Something For Liza.wav" WAVE TRACK 03 AUDIO TITLE "Something For Liza" PERFORMER "Chet Baker" FLAGS DCP INDEX 01 00:00:00FILE "04.Slightly Above Moderate.wav" WAVE TRACK 04 AUDIO TITLE "Slightly Above Moderate" PERFORMER "Chet Baker" FLAGS DCP INDEX 01 00:00:00FILE "05.Lucius Lu.wav" WAVE TRACK 05 AUDIO TITLE "Lucius Lu" PERFORMER "Chet Baker" FLAGS DCP INDEX 01 00:00:00FILE "06.To Mickey'' Memory.wav" WAVE TRACK 06 AUDIO TITLE "To Mickey'' Memory" PERFORMER "Chet Baker" FLAGS DCP INDEX 01 00:00:00FILE "07.Worryin'' The Life Out Of Me.wav" WAVE TRACK 07 AUDIO TITLE "Worryin'' The Life Out Of Me" PERFORMER "Chet Baker" FLAGS DCP INDEX 01 00:00:00FILE "08.Medium Rock.wav" WAVE TRACK 08 AUDIO TITLE "Medium Rock" PERFORMER "Chet Baker" FLAGS DCP INDEX 01 00:00:00FILE "09.Jumping'' Off A Clef.wav" WAVE TRACK 09 AUDIO TITLE "Jumping'' Off A Clef" PERFORMER "Chet Baker" FLAGS DCP INDEX 01 00:00:00FILE "10.Chippyin.wav" WAVE TRACK 10 AUDIO TITLE "Chippyin" PERFORMER "Chet Baker" FLAGS DCP INDEX 01 00:00:00FILE "11.Pawnee Junction.wav" WAVE TRACK 11 AUDIO TITLE "Pawnee Junction" PERFORMER "Chet Baker" FLAGS DCP INDEX 01 00:00:00FILE "12.Line For Lyons.wav" WAVE TRACK 12 AUDIO TITLE "Line For Lyons" PERFORMER "Chet Baker" FLAGS DCP INDEX 01 00:00:00FILE "13.Music To Dance By.wav" WAVE TRACK 13 AUDIO TITLE "Music To Dance By" PERFORMER "Chet Baker" FLAGS DCP INDEX 01 00:00:00FILE "14.To Mickey''s Memory Alt. Take.wav" WAVE TRACK 14 AUDIO TITLE "To Mickey''s Memory Alt. Take" PERFORMER "Chet Baker" FLAGS DCP INDEX 01 00:00:00
[b]Треклист:

[b]
01. Mythe [04:26]
02. Phil''s Blues [04:38]
03. Dinah [04:39]
04. V-Line [03:25]
05. A Foggy Day [03:28]
06. Darn That Dream [03:30]
07. Tenderly [04:04]
08. Worryin'' The Life Out Of Me [05:22]
09. Chet [04:11]
10. Not Too Slow [03:49]
Exact Audio Copy V1.0 beta 3 from 29. August 2011

EAC extraction logfile from 12. December 2013, 0:57

Chet Baker / Love Walked In Disc 4

Used drive : PLEXTOR DVDR PX-L890SA Adapter: 0 ID: 0

Read mode : SecureUtilize accurate stream : YesDefeat audio cache : YesMake use of C2 pointers : No

Read offset correction : 6Overread into Lead-In and Lead-Out : NoFill up missing offset samples with silence : YesDelete leading and trailing silent blocks : NoNull samples used in CRC calculations : YesUsed interface : Native Win32 interface for Win NT & 2000Gap handling : Appended to previous track

Used output format : User Defined EncoderSelected bitrate : 896 kBit/sQuality : HighAdd ID3 tag : NoCommand line compressor : C:\Program Files (x86)\FLAC\flac.exeAdditional command line options : -8 -V -T "ARTIST=%artist%" -T "TITLE=%title%" -T "ALBUM=%albumtitle%" -T "DATE=%year%" -T "TRACKNUMBER=%tracknr%" -T "GENRE=%genre%" -T "PERFORMER=%albuminterpret%" -T "COMPOSER=%composer%" %haslyrics%--tag-from-file=LYRICS="%lyricsfile%"%haslyrics% -T "ALBUMARTIST=%albumartist%" -T "DISCNUMBER=%cdnumber%" -T "TOTALDISCS=%totalcds%" -T "TOTALTRACKS=%numtracks%" -T "COMMENT=%comment%" %source% -o %dest%

TOC of the extracted CD

Track | Start | Length | Start sector | End sector --------------------------------------------------------- 1 | 0:00.00 | 4:26.01 | 0 | 19950 2 | 4:26.01 | 4:38.08 | 19951 | 40808 3 | 9:04.09 | 4:39.52 | 40809 | 61785 4 | 13:43.61 | 3:25.03 | 61786 | 77163 5 | 17:08.64 | 3:28.58 | 77164 | 92821 6 | 20:37.47 | 3:30.57 | 92822 | 108628 7 | 24:08.29 | 4:04.23 | 108629 | 126951 8 | 28:12.52 | 5:22.15 | 126952 | 151116 9 | 33:34.67 | 4:11.71 | 151117 | 170012 10 | 37:46.63 | 3:49.56 | 170013 | 187243

Track 1

Filename E:\PT\Chet Baker - Love Walked In\Disc 4of4\01.Mythe.wav

Pre-gap length 0:00:02.00

Peak level 89.7 % Extraction speed 3.6 X Track quality 100.0 % Test CRC 56F3DA57 Copy CRC 56F3DA57 Accurately ripped (confidence 2) [464FEC73] (AR v2) Copy OK

Track 2

Filename E:\PT\Chet Baker - Love Walked In\Disc 4of4\02.Phil''s Blues.wav

Peak level 95.2 % Extraction speed 4.1 X Track quality 100.0 % Test CRC CA28CD48 Copy CRC CA28CD48 Accurately ripped (confidence 2) [1FAAF6A4] (AR v2) Copy OK

Track 3

Filename E:\PT\Chet Baker - Love Walked In\Disc 4of4\03.Dinah.wav

Peak level 95.2 % Extraction speed 4.5 X Track quality 100.0 % Test CRC F75F2F32 Copy CRC F75F2F32 Accurately ripped (confidence 2) [63E3B4FD] (AR v2) Copy OK

Track 4

Filename E:\PT\Chet Baker - Love Walked In\Disc 4of4\04.V-Line.wav

Peak level 94.6 % Extraction speed 4.6 X Track quality 100.0 % Test CRC 8CDC7881 Copy CRC 8CDC7881 Accurately ripped (confidence 2) [4B715661] (AR v2) Copy OK

Track 5

Filename E:\PT\Chet Baker - Love Walked In\Disc 4of4\05.A Foggy Day.wav

Peak level 99.0 % Extraction speed 4.8 X Track quality 100.0 % Test CRC 9DD49766 Copy CRC 9DD49766 Accurately ripped (confidence 2) [91F3B199] (AR v2) Copy OK

Track 6

Filename E:\PT\Chet Baker - Love Walked In\Disc 4of4\06.Darn That Dream.wav

Peak level 96.7 % Extraction speed 5.0 X Track quality 100.0 % Test CRC FB6F47D6 Copy CRC FB6F47D6 Accurately ripped (confidence 2) [DED0DF89] (AR v2) Copy OK

Track 7

Filename E:\PT\Chet Baker - Love Walked In\Disc 4of4\07.Tenderly.wav

Peak level 69.5 % Extraction speed 5.4 X Track quality 100.0 % Test CRC 0432E9BF Copy CRC 0432E9BF Accurately ripped (confidence 2) [C448204A] (AR v2) Copy OK

Track 8

Filename E:\PT\Chet Baker - Love Walked In\Disc 4of4\08.Worryin'' The Life Out Of Me.wav

Peak level 71.5 % Extraction speed 5.9 X Track quality 100.0 % Test CRC 2D140110 Copy CRC 2D140110 Accurately ripped (confidence 2) [1ECF521F] (AR v2) Copy OK

Track 9

Filename E:\PT\Chet Baker - Love Walked In\Disc 4of4\09.Chet.wav

Peak level 89.6 % Extraction speed 6.0 X Track quality 100.0 % Test CRC 1F8A71B7 Copy CRC 1F8A71B7 Accurately ripped (confidence 2) [763B26CC] (AR v2) Copy OK

Track 10

Filename E:\PT\Chet Baker - Love Walked In\Disc 4of4\10.Not Too Slow.wav

Peak level 69.8 % Extraction speed 4.8 X Track quality 99.9 % Test CRC BCA3548C Copy CRC BCA3548C Accurately ripped (confidence 2) [5FFBB8DA] (AR v2) Copy OK

All tracks accurately ripped

No errors occurred

End of status report

---- CUETools DB Plugin V2.1.5

[CTDB TOCID: BTckEgUi.sKfLZ0eRpMzHBgAdPQ-] foundSubmit result: BTckEgUi.sKfLZ0eRpMzHBgAdPQ- has been confirmedTrack | CTDB Status 1 | (2/2) Accurately ripped 2 | (2/2) Accurately ripped 3 | (2/2) Accurately ripped 4 | (2/2) Accurately ripped 5 | (2/2) Accurately ripped 6 | (2/2) Accurately ripped 7 | (2/2) Accurately ripped 8 | (2/2) Accurately ripped 9 | (2/2) Accurately ripped 10 | (2/2) Accurately ripped

==== Log checksum E2F9E478F8AF38B15ACAD012B012042AC8984CB7B93844B42688D5F0E18337CD ====
REM GENRE JazzREM DATE 2006REM DISCID 7C09C00AREM COMMENT "ExactAudioCopy v1.0b3"PERFORMER "Chet Baker"TITLE "Love Walked In Disc 4"FILE "01.Mythe.wav" WAVE TRACK 01 AUDIO TITLE "Mythe" PERFORMER "Chet Baker" FLAGS DCP INDEX 01 00:00:00FILE "02.Phil''s Blues.wav" WAVE TRACK 02 AUDIO TITLE "Phil''s Blues" PERFORMER "Chet Baker" FLAGS DCP INDEX 01 00:00:00FILE "03.Dinah.wav" WAVE TRACK 03 AUDIO TITLE "Dinah" PERFORMER "Chet Baker" FLAGS DCP INDEX 01 00:00:00FILE "04.V-Line.wav" WAVE TRACK 04 AUDIO TITLE "V-Line" PERFORMER "Chet Baker" FLAGS DCP INDEX 01 00:00:00FILE "05.A Foggy Day.wav" WAVE TRACK 05 AUDIO TITLE "A Foggy Day" PERFORMER "Chet Baker" FLAGS DCP INDEX 01 00:00:00FILE "06.Darn That Dream.wav" WAVE TRACK 06 AUDIO TITLE "Darn That Dream" PERFORMER "Chet Baker" FLAGS DCP INDEX 01 00:00:00FILE "07.Tenderly.wav" WAVE TRACK 07 AUDIO TITLE "Tenderly" PERFORMER "Chet Baker" FLAGS DCP INDEX 01 00:00:00FILE "08.Worryin'' The Life Out Of Me.wav" WAVE TRACK 08 AUDIO TITLE "Worryin'' The Life Out Of Me" PERFORMER "Chet Baker" FLAGS DCP INDEX 01 00:00:00FILE "09.Chet.wav" WAVE TRACK 09 AUDIO TITLE "Chet" PERFORMER "Chet Baker" FLAGS DCP INDEX 01 00:00:00FILE "10.Not Too Slow.wav" WAVE TRACK 10 AUDIO TITLE "Not Too Slow" PERFORMER "Chet Baker" FLAGS DCP INDEX 01 00:00:00


Трекер:  [ 05-Янв-2014 15:25 ]

  

Скачать .torrent

Размер .torrent файла 14 KB


Размер: 1.04 GB
Хэш (hash) релиза: 86bd3c89321905c262c9dce597c1fcf280bf0c82

Еще никто не оставлял запись к записи скачать торрент . Будь первым!

!Обратная связь