Скачать через торрент музыку бесплатно без регистрации torrent

Если у вас наблюдаются проблемы со скриншотами, переходом по ссылками, скачиванием торрентов - проблемы в блокировщике рекламы AdBlock. #хорошегоДня!


Статистика раздачи
Размер:  334 MB   |    Зарегистрирован:  3 года 9 месяцев   |    .torrent скачан:  232 раза   |   
Раздают:  1  
   
Загрузка...
 
Автор Сообщение

Galfimbul

avatar Galfimbul


♦ Doris Day - Journey Of Love ♦

Жанр: Vocal Jazz, Easy Listening
Носитель: CD
Страна-производитель диска: UK
Год издания: 2000
Издатель (лейбл): Newsound
Номер по каталогу: NEW221
Аудиокодек: FLAC (*.flac)
Тип рипа: image+.cue
Битрейт аудио: lossless
Продолжительность: 01:01:41
Источник (релизер): maestro
Наличие сканов в содержимом раздачи: да

Треклист:

01. Sentimental Journey [03:14]
02. My Young And Foolish Heart [02:56]
03. Someone Like You [02:48]
04. It''s Magic [03:26]
05. Just An Old Love Of Mine [03:17]
06. My Dream Is Yours [03:08]
07. No Moon At All [03:10]
08. It''s A Sentimental Thing To Do [03:17]
09. Just Imagine [03:02]
10. Why Should We Both Be Lonely [02:53]
11. Pretty Baby [03:01]
12. It Takes Time [02:57]
13. I''ve Only Myself To Blame [03:22]
14. I''m Still Sitting Under The Apple Tree [03:01]
15. Put ''Em In A Box (And Tie ''Em With A Ribbon) [03:05]
16. That''s The Way He Does It [02:59]
17. Thoughtless [03:08]
18. Tell Me, Dream Face [02:53]
19. Say Something Nice About Me Baby [03:00]
20. When Tonight Is Just A Memory [02:55]
Exact Audio Copy V1.0 beta 3 from 29. August 2011

EAC extraction logfile from 21. June 2013, 17:04

Doris Day / Journey Of Love

Used drive : Optiarc DVD RW AD-5280S Adapter: 2 ID: 1

Read mode : SecureUtilize accurate stream : YesDefeat audio cache : YesMake use of C2 pointers : No

Read offset correction : 48Overread into Lead-In and Lead-Out : NoFill up missing offset samples with silence : YesDelete leading and trailing silent blocks : NoNull samples used in CRC calculations : YesUsed interface : Installed external ASPI interface

Used output format : Internal WAV RoutinesSample format : 44.100 Hz; 16 Bit; Stereo

TOC of the extracted CD

Track | Start | Length | Start sector | End sector --------------------------------------------------------- 1 | 0:00.00 | 3:14.00 | 0 | 14549 2 | 3:14.00 | 2:56.15 | 14550 | 27764 3 | 6:10.15 | 2:48.15 | 27765 | 40379 4 | 8:58.30 | 3:26.15 | 40380 | 55844 5 | 12:24.45 | 3:17.30 | 55845 | 70649 6 | 15:42.00 | 3:08.42 | 70650 | 84791 7 | 18:50.42 | 3:10.63 | 84792 | 99104 8 | 22:01.30 | 3:17.70 | 99105 | 113949 9 | 25:19.25 | 3:02.65 | 113950 | 127664 10 | 28:22.15 | 2:53.62 | 127665 | 140701 11 | 31:16.02 | 3:01.28 | 140702 | 154304 12 | 34:17.30 | 2:57.32 | 154305 | 167611 13 | 37:14.62 | 3:22.65 | 167612 | 182826 14 | 40:37.52 | 3:01.08 | 182827 | 196409 15 | 43:38.60 | 3:05.10 | 196410 | 210294 16 | 46:43.70 | 2:59.37 | 210295 | 223756 17 | 49:43.32 | 3:08.53 | 223757 | 237909 18 | 52:52.10 | 2:53.10 | 237910 | 250894 19 | 55:45.20 | 3:00.65 | 250895 | 264459 20 | 58:46.10 | 2:55.50 | 264460 | 277634

Range status and errors

Selected range

Filename C:\rip-flacmusic.ru\Doris Day - Journey Of Love.wav

Peak level 98.8 % Extraction speed 4.0 X Range quality 99.9 % Test CRC 9756FB74 Copy CRC 9756FB74 Copy OK

No errors occurred

AccurateRip summary

Track 1 accurately ripped (confidence 1) [C279C7BA] (AR v1)Track 2 accurately ripped (confidence 1) [D9487C1D] (AR v1)Track 3 accurately ripped (confidence 1) [E7F76B92] (AR v1)Track 4 accurately ripped (confidence 1) [FFC1BFBF] (AR v1)Track 5 accurately ripped (confidence 1) [1658D0DA] (AR v1)Track 6 accurately ripped (confidence 1) [FC2F495F] (AR v1)Track 7 accurately ripped (confidence 1) [7819006B] (AR v1)Track 8 accurately ripped (confidence 1) [8D4F1189] (AR v1)Track 9 accurately ripped (confidence 1) [64FDFABD] (AR v1)Track 10 accurately ripped (confidence 1) [72B6ED54] (AR v1)Track 11 accurately ripped (confidence 1) [91377E6B] (AR v1)Track 12 accurately ripped (confidence 1) [52AAC168] (AR v1)Track 13 accurately ripped (confidence 1) [B419E28B] (AR v1)Track 14 accurately ripped (confidence 1) [4D4969D3] (AR v1)Track 15 accurately ripped (confidence 1) [3091271D] (AR v1)Track 16 accurately ripped (confidence 1) [DD2D7FA8] (AR v1)Track 17 accurately ripped (confidence 1) [C21D5CF1] (AR v1)Track 18 accurately ripped (confidence 1) [13D495EE] (AR v1)Track 19 accurately ripped (confidence 1) [463D38DE] (AR v1)Track 20 accurately ripped (confidence 1) [34366101] (AR v1)

All tracks accurately ripped

End of status report

==== Log checksum 3BFD00D68743B6AA2C093B3453A4E0B4B20D528905AE269BB0E7308D7896BF2B ====
REM GENRE JazzREM DATE 1999REM DISCID 190E7514REM COMMENT "ExactAudioCopy v1.0b3"PERFORMER "Doris Day"TITLE "Journey Of Love"FILE "Doris Day - Journey Of Love.flac" WAVE TRACK 01 AUDIO TITLE "Sentimental Journey" PERFORMER "Doris Day" INDEX 01 00:00:00 TRACK 02 AUDIO TITLE "My Young And Foolish Heart" PERFORMER "Doris Day" INDEX 00 03:12:25 INDEX 01 03:14:00 TRACK 03 AUDIO TITLE "Someone Like You" PERFORMER "Doris Day" INDEX 00 06:08:40 INDEX 01 06:10:15 TRACK 04 AUDIO TITLE "It''s Magic" PERFORMER "Doris Day" INDEX 00 08:56:55 INDEX 01 08:58:30 TRACK 05 AUDIO TITLE "Just An Old Love Of Mine" PERFORMER "Doris Day" INDEX 00 12:22:67 INDEX 01 12:24:45 TRACK 06 AUDIO TITLE "My Dream Is Yours" PERFORMER "Doris Day" INDEX 00 15:40:25 INDEX 01 15:42:00 TRACK 07 AUDIO TITLE "No Moon At All" PERFORMER "Doris Day" INDEX 00 18:48:67 INDEX 01 18:50:42 TRACK 08 AUDIO TITLE "It''s A Sentimental Thing To Do" PERFORMER "Doris Day" INDEX 00 21:59:55 INDEX 01 22:01:30 TRACK 09 AUDIO TITLE "Just Imagine" PERFORMER "Doris Day" INDEX 00 25:17:50 INDEX 01 25:19:25 TRACK 10 AUDIO TITLE "Why Should We Both Be Lonely" PERFORMER "Doris Day" INDEX 00 28:20:40 INDEX 01 28:22:15 TRACK 11 AUDIO TITLE "Pretty Baby" PERFORMER "Doris Day" INDEX 00 31:14:27 INDEX 01 31:16:02 TRACK 12 AUDIO TITLE "It Takes Time" PERFORMER "Doris Day" INDEX 00 34:15:55 INDEX 01 34:17:30 TRACK 13 AUDIO TITLE "I''ve Only Myself To Blame" PERFORMER "Doris Day" INDEX 00 37:13:12 INDEX 01 37:14:62 TRACK 14 AUDIO TITLE "I''m Still Sitting Under The Apple Tree" PERFORMER "Doris Day" INDEX 00 40:36:02 INDEX 01 40:37:52 TRACK 15 AUDIO TITLE "Put ''Em In A Box (And Tie ''Em With A Ribbon)" PERFORMER "Doris Day" INDEX 00 43:37:10 INDEX 01 43:38:60 TRACK 16 AUDIO TITLE "That''s The Way He Does It" PERFORMER "Doris Day" INDEX 00 46:42:20 INDEX 01 46:43:70 TRACK 17 AUDIO TITLE "Thoughtless" PERFORMER "Doris Day" INDEX 00 49:41:57 INDEX 01 49:43:32 TRACK 18 AUDIO TITLE "Tell Me, Dream Face" PERFORMER "Doris Day" INDEX 00 52:50:35 INDEX 01 52:52:10 TRACK 19 AUDIO TITLE "Say Something Nice About Me Baby" PERFORMER "Doris Day" INDEX 00 55:43:45 INDEX 01 55:45:20 TRACK 20 AUDIO TITLE "When Tonight Is Just A Memory" PERFORMER "Doris Day" INDEX 00 58:44:35 INDEX 01 58:46:10


Трекер:  [ 04-Янв-2014 17:08 ]

  

Скачать .torrent

Размер .torrent файла 14 KB


Размер: 334 MB
Хэш (hash) релиза: 0ecc3ef1169afbe9f9bd64a967e11a05b72d7305

Еще никто не оставлял запись к записи скачать торрент . Будь первым!

!Обратная связь