Скачать через торрент музыку бесплатно без регистрации torrent

Если у вас наблюдаются проблемы со скриншотами, переходом по ссылками, скачиванием торрентов - проблемы в блокировщике рекламы AdBlock. #хорошегоДня!


Статистика раздачи
Размер:  708 MB   |    Зарегистрирован:  3 года 9 месяцев   |    .torrent скачан:  89 раз   |   
Раздают:  1  
   
Загрузка...
 
Автор Сообщение

Galfimbul

avatar Galfimbul


♦ Kenny Burrell - The Bluesin'' Around Sessions {1961-1962} ♦

Жанр: Hard Bop, Guitar Jazz
Носитель: CD
Страна-производитель диска: EU
Год издания: 2013
Издатель (лейбл): Essential Jazz Classics
Номер по каталогу: EJC55619
Аудиокодек: FLAC (*.flac)
Тип рипа: tracks+.cue
Битрейт аудио: lossless
Продолжительность: 01:16:16
Источник (релизер): ruskaval
Наличие сканов в содержимом раздачи: да

Треклист:

01. Mambo Twist (alt tk) [03:50]
02. Mambo Twist (master) [03:06]
03. The Switch (master) [05:07]
04. Bye And Bye [02:51]
05. Funk Junction [03:08]
06. Mood Indigo [04:42]
07. The Squeeze [04:18]
08. How Could You (Do A Thing Like That To Me ?) [03:56]
09. Opus 21 [04:46]
10. Bluesin'' Around (alt tk) [04:03]
11. Bluesin'' Around (master) [03:44]
12. Gettin'' In The Groove (alt tk) [04:43]
13. Gettin'' In The Groove (master) [04:24]
14. One Mint Julep [03:32]
15. People Will Say We''re In Love (alt tk) [03:30]
16. People Will Say We''re In Love (master) [03:41]
17. Moten Swing (alt tk) [06:19]
18. Moten Swing (master) [06:27]
Exact Audio Copy V0.99 prebeta 5 from 4. May 2009

EAC extraction logfile from 21. December 2013, 23:23

Kenny Burrell / The Bluesin'' Around Sessions

Used drive : PLEXTOR DVDR PX-L890SA Adapter: 6 ID: 0

Read mode : SecureUtilize accurate stream : YesDefeat audio cache : YesMake use of C2 pointers : No

Read offset correction : 6Overread into Lead-In and Lead-Out : NoFill up missing offset samples with silence : YesDelete leading and trailing silent blocks : NoNull samples used in CRC calculations : YesUsed interface : Native Win32 interface for Win NT & 2000Gap handling : Appended to previous track

Used output format : User Defined EncoderSelected bitrate : 1024 kBit/sQuality : HighAdd ID3 tag : NoCommand line compressor : C:\Program Files (x86)\FLAC Frontend\tools\flac.exeAdditional command line options : -8 -V -T "ARTIST=%a" -T "TITLE=%t" -T "ALBUM=%g" -T "DATE=%y" -T "TRACKNUMBER=%n" -T "GENRE=%m" -T "COMMENT=EAC FLAC -8" %s

TOC of the extracted CD

Track | Start | Length | Start sector | End sector --------------------------------------------------------- 1 | 0:00.00 | 3:50.23 | 0 | 17272 2 | 3:50.23 | 3:06.24 | 17273 | 31246 3 | 6:56.47 | 5:07.38 | 31247 | 54309 4 | 12:04.10 | 2:51.45 | 54310 | 67179 5 | 14:55.55 | 3:08.36 | 67180 | 81315 6 | 18:04.16 | 4:42.03 | 81316 | 102468 7 | 22:46.19 | 4:18.67 | 102469 | 121885 8 | 27:05.11 | 3:56.50 | 121886 | 139635 9 | 31:01.61 | 4:46.11 | 139636 | 161096 10 | 35:47.72 | 4:03.62 | 161097 | 179383 11 | 39:51.59 | 3:44.70 | 179384 | 196253 12 | 43:36.54 | 4:43.24 | 196254 | 217502 13 | 48:20.03 | 4:24.66 | 217503 | 237368 14 | 52:44.69 | 3:32.69 | 237369 | 253337 15 | 56:17.63 | 3:30.01 | 253338 | 269088 16 | 59:47.64 | 3:41.68 | 269089 | 285731 17 | 63:29.57 | 6:19.09 | 285732 | 314165 18 | 69:48.66 | 6:27.49 | 314166 | 343239

Track 1

Filename F:\_EAC\Kenny Burrell - The Bluesin'' Around Sessions (1961-62) {2013 Essential Jazz 24-bit Remaster}\01 - Mambo Twist (alt tk).wav

Pre-gap length 0:00:02.00

Peak level 98.8 % Track quality 100.0 % Test CRC 257FD17D Copy CRC 257FD17D Track not present in AccurateRip database Copy OK

Track 2

Filename F:\_EAC\Kenny Burrell - The Bluesin'' Around Sessions (1961-62) {2013 Essential Jazz 24-bit Remaster}\02 - Mambo Twist (master).wav

Peak level 97.3 % Track quality 100.0 % Test CRC 331E1009 Copy CRC 331E1009 Track not present in AccurateRip database Copy OK

Track 3

Filename F:\_EAC\Kenny Burrell - The Bluesin'' Around Sessions (1961-62) {2013 Essential Jazz 24-bit Remaster}\03 - The Switch (master).wav

Peak level 98.8 % Track quality 100.0 % Test CRC 75CC6351 Copy CRC 75CC6351 Track not present in AccurateRip database Copy OK

Track 4

Filename F:\_EAC\Kenny Burrell - The Bluesin'' Around Sessions (1961-62) {2013 Essential Jazz 24-bit Remaster}\04 - Bye And Bye.wav

Peak level 98.8 % Track quality 100.0 % Test CRC 449AC63A Copy CRC 449AC63A Track not present in AccurateRip database Copy OK

Track 5

Filename F:\_EAC\Kenny Burrell - The Bluesin'' Around Sessions (1961-62) {2013 Essential Jazz 24-bit Remaster}\05 - Funk Junction.wav

Peak level 97.4 % Track quality 100.0 % Test CRC 9CB763D6 Copy CRC 9CB763D6 Track not present in AccurateRip database Copy OK

Track 6

Filename F:\_EAC\Kenny Burrell - The Bluesin'' Around Sessions (1961-62) {2013 Essential Jazz 24-bit Remaster}\06 - Mood Indigo.wav

Peak level 98.8 % Track quality 100.0 % Test CRC ECFEA72B Copy CRC ECFEA72B Track not present in AccurateRip database Copy OK

Track 7

Filename F:\_EAC\Kenny Burrell - The Bluesin'' Around Sessions (1961-62) {2013 Essential Jazz 24-bit Remaster}\07 - The Squeeze.wav

Peak level 98.8 % Track quality 100.0 % Test CRC 213F4F14 Copy CRC 213F4F14 Track not present in AccurateRip database Copy OK

Track 8

Filename F:\_EAC\Kenny Burrell - The Bluesin'' Around Sessions (1961-62) {2013 Essential Jazz 24-bit Remaster}\08 - How Could You (Do A Thing Like That To Me ).wav

Peak level 98.8 % Track quality 100.0 % Test CRC 4C989FFF Copy CRC 4C989FFF Track not present in AccurateRip database Copy OK

Track 9

Filename F:\_EAC\Kenny Burrell - The Bluesin'' Around Sessions (1961-62) {2013 Essential Jazz 24-bit Remaster}\09 - Opus 21.wav

Peak level 98.8 % Track quality 100.0 % Test CRC 9DFBE005 Copy CRC 9DFBE005 Track not present in AccurateRip database Copy OK

Track 10

Filename F:\_EAC\Kenny Burrell - The Bluesin'' Around Sessions (1961-62) {2013 Essential Jazz 24-bit Remaster}\10 - Bluesin'' Around (alt tk).wav

Peak level 98.8 % Track quality 100.0 % Test CRC 2CE6C1D0 Copy CRC 2CE6C1D0 Track not present in AccurateRip database Copy OK

Track 11

Filename F:\_EAC\Kenny Burrell - The Bluesin'' Around Sessions (1961-62) {2013 Essential Jazz 24-bit Remaster}\11 - Bluesin'' Around (master).wav

Peak level 98.8 % Track quality 100.0 % Test CRC C1083C02 Copy CRC C1083C02 Track not present in AccurateRip database Copy OK

Track 12

Filename F:\_EAC\Kenny Burrell - The Bluesin'' Around Sessions (1961-62) {2013 Essential Jazz 24-bit Remaster}\12 - Gettin'' In The Groove (alt tk).wav

Peak level 98.8 % Track quality 100.0 % Test CRC 16E9E28E Copy CRC 16E9E28E Track not present in AccurateRip database Copy OK

Track 13

Filename F:\_EAC\Kenny Burrell - The Bluesin'' Around Sessions (1961-62) {2013 Essential Jazz 24-bit Remaster}\13 - Gettin'' In The Groove (master).wav

Peak level 98.8 % Track quality 100.0 % Test CRC EF673E1D Copy CRC EF673E1D Track not present in AccurateRip database Copy OK

Track 14

Filename F:\_EAC\Kenny Burrell - The Bluesin'' Around Sessions (1961-62) {2013 Essential Jazz 24-bit Remaster}\14 - One Mint Julep.wav

Peak level 98.8 % Track quality 100.0 % Test CRC 198EBBB3 Copy CRC 198EBBB3 Track not present in AccurateRip database Copy OK

Track 15

Filename F:\_EAC\Kenny Burrell - The Bluesin'' Around Sessions (1961-62) {2013 Essential Jazz 24-bit Remaster}\15 - People Will Say We''re In Love (alt tk).wav

Peak level 98.8 % Track quality 100.0 % Test CRC 8C54FD68 Copy CRC 8C54FD68 Track not present in AccurateRip database Copy OK

Track 16

Filename F:\_EAC\Kenny Burrell - The Bluesin'' Around Sessions (1961-62) {2013 Essential Jazz 24-bit Remaster}\16 - People Will Say We''re In Love (master).wav

Peak level 98.8 % Track quality 100.0 % Test CRC 865102E4 Copy CRC 865102E4 Track not present in AccurateRip database Copy OK

Track 17

Filename F:\_EAC\Kenny Burrell - The Bluesin'' Around Sessions (1961-62) {2013 Essential Jazz 24-bit Remaster}\17 - Moten Swing (alt tk).wav

Peak level 98.8 % Track quality 100.0 % Test CRC 0D962625 Copy CRC 0D962625 Track not present in AccurateRip database Copy OK

Track 18

Filename F:\_EAC\Kenny Burrell - The Bluesin'' Around Sessions (1961-62) {2013 Essential Jazz 24-bit Remaster}\18 - Moten Swing (master).wav

Peak level 98.8 % Track quality 100.0 % Test CRC 4C506623 Copy CRC 4C506623 Track not present in AccurateRip database Copy OK

None of the tracks are present in the AccurateRip database

No errors occurred

End of status report
REM GENRE JazzREM DATE 2013REM DISCID 1A11E012REM COMMENT "ExactAudioCopy v0.99pb5"PERFORMER "Kenny Burrell"TITLE "The Bluesin'' Around Sessions"FILE "01 - Mambo Twist (alt tk).wav" WAVE TRACK 01 AUDIO TITLE "Mambo Twist (alt tk)" PERFORMER "Kenny Burrell" INDEX 01 00:00:00FILE "02 - Mambo Twist (master).wav" WAVE TRACK 02 AUDIO TITLE "Mambo Twist (master)" PERFORMER "Kenny Burrell" INDEX 01 00:00:00FILE "03 - The Switch (master).wav" WAVE TRACK 03 AUDIO TITLE "The Switch (master)" PERFORMER "Kenny Burrell" INDEX 01 00:00:00FILE "04 - Bye And Bye.wav" WAVE TRACK 04 AUDIO TITLE "Bye And Bye" PERFORMER "Kenny Burrell" INDEX 01 00:00:00FILE "05 - Funk Junction.wav" WAVE TRACK 05 AUDIO TITLE "Funk Junction" PERFORMER "Kenny Burrell" INDEX 01 00:00:00FILE "06 - Mood Indigo.wav" WAVE TRACK 06 AUDIO TITLE "Mood Indigo" PERFORMER "Kenny Burrell" INDEX 01 00:00:00FILE "07 - The Squeeze.wav" WAVE TRACK 07 AUDIO TITLE "The Squeeze" PERFORMER "Kenny Burrell" INDEX 01 00:00:00FILE "08 - How Could You (Do A Thing Like That To Me ).wav" WAVE TRACK 08 AUDIO TITLE "How Could You (Do A Thing Like That To Me ?)" PERFORMER "Kenny Burrell" INDEX 01 00:00:00FILE "09 - Opus 21.wav" WAVE TRACK 09 AUDIO TITLE "Opus 21" PERFORMER "Kenny Burrell" INDEX 01 00:00:00FILE "10 - Bluesin'' Around (alt tk).wav" WAVE TRACK 10 AUDIO TITLE "Bluesin'' Around (alt tk)" PERFORMER "Kenny Burrell" INDEX 01 00:00:00FILE "11 - Bluesin'' Around (master).wav" WAVE TRACK 11 AUDIO TITLE "Bluesin'' Around (master)" PERFORMER "Kenny Burrell" INDEX 01 00:00:00FILE "12 - Gettin'' In The Groove (alt tk).wav" WAVE TRACK 12 AUDIO TITLE "Gettin'' In The Groove (alt tk)" PERFORMER "Kenny Burrell" INDEX 01 00:00:00FILE "13 - Gettin'' In The Groove (master).wav" WAVE TRACK 13 AUDIO TITLE "Gettin'' In The Groove (master)" PERFORMER "Kenny Burrell" INDEX 01 00:00:00FILE "14 - One Mint Julep.wav" WAVE TRACK 14 AUDIO TITLE "One Mint Julep" PERFORMER "Kenny Burrell" INDEX 01 00:00:00FILE "15 - People Will Say We''re In Love (alt tk).wav" WAVE TRACK 15 AUDIO TITLE "People Will Say We''re In Love (alt tk)" PERFORMER "Kenny Burrell" INDEX 01 00:00:00FILE "16 - People Will Say We''re In Love (master).wav" WAVE TRACK 16 AUDIO TITLE "People Will Say We''re In Love (master)" PERFORMER "Kenny Burrell" INDEX 01 00:00:00FILE "17 - Moten Swing (alt tk).wav" WAVE TRACK 17 AUDIO TITLE "Moten Swing (alt tk)" PERFORMER "Kenny Burrell" INDEX 01 00:00:00FILE "18 - Moten Swing (master).wav" WAVE TRACK 18 AUDIO TITLE "Moten Swing (master)" PERFORMER "Kenny Burrell" INDEX 01 00:00:00
Personnel:

KENNY BURRELL - guitar

[1-3]:

Illinois Jacacquet (ts)
Hank Jones (p)
Major Holley (b)
Osie Johnson (dr).
New York, November 21, 1961.


[4-8]:

Same as above except Jimmy Crawfordrawford (d)
replaces Osie Johnson. New York, November 28, 1961.

[9-13]:

Eddie Bertert (tb)
Hank Jones (p)
George Duvivier (b)
Louis Hayesayes (dr).
New York, March 6, 1962.


[14-18]:

Leo Wright (on “Moten Swing” only),
Brotherrotherrother Jackack McDuff (org),
Joe Dukes (dr).
New York, April 30, 1962.


Трекер:  [ 04-Янв-2014 17:07 ]

  

Скачать .torrent

Размер .torrent файла 16 KB


Размер: 708 MB
Хэш (hash) релиза: 772fe34a57b5c294b471bbb817eb15cb8f7f42a0

Еще никто не оставлял запись к записи скачать торрент . Будь первым!

!Обратная связь