Скачать через торрент музыку бесплатно без регистрации torrent

Статистика раздачи
Размер:  366 MB   |    Зарегистрирован:  3 года 1 месяц   |    .torrent скачан:  180 раз   |   
Раздают:  1  
   
 
Автор Сообщение

Galfimbul

avatar Galfimbul


Bob Harris / The Great Nostalgia

Жанр: New Age, Electronic, Zappa Related
Носитель: CD
Страна-производитель диска: US
Год издания: 2007
Издатель (лейбл): Crossfire Publications
Номер по каталогу: 9510-2
Страна: US
Аудиокодек: FLAC (*.flac)
Тип рипа: tracks+.cue
Битрейт аудио: lossless
Продолжительность: 69:16
Источник (релизер): свой фирменный диск
Наличие сканов в содержимом раздачи:
Треклист:
1. Ageless Love (Remix)
2. The Great Nostalgia
3. Message From The Shore
4. The Flower
5. There''s Still Hope
6. Autumn In Nepal (Steve Vai Remix)
7. The Blue Gazebo
8. Nobody Wins In A War
9. Somewhere Over The Rainbow (Live At Zappanale 13)
10. Magnet And Iron
11. White Bird / Ancient Wish
12. There''s Still Hope (Steve Vai Remix)
Exact Audio Copy V1.0 beta 3 from 29. August 2011

EAC extraction logfile from 28. December 2013, 0:36

Bob Harris / The Great Nostalgia

Used drive : PIONEER DVD-RW DVR-115D Adapter: 0 ID: 0

Read mode : SecureUtilize accurate stream : YesDefeat audio cache : YesMake use of C2 pointers : No

Read offset correction : 48Overread into Lead-In and Lead-Out : NoFill up missing offset samples with silence : YesDelete leading and trailing silent blocks : NoNull samples used in CRC calculations : YesUsed interface : Installed external ASPI interfaceGap handling : Appended to previous track

Used output format : User Defined EncoderSelected bitrate : 896 kBit/sQuality : HighAdd ID3 tag : NoCommand line compressor : C:\Program Files\Exact Audio Copy\FLAC\FLAC.EXEAdditional command line options : -6 -V -T "ARTIST=%artist%" -T "TITLE=%title%" -T "ALBUM=%albumtitle%" -T "DATE=%year%" -T "TRACKNUMBER=%tracknr%" -T "GENRE=%genre%" -T "COMMENT=%comment%" -T "BAND=%albuminterpret%" -T "COMPOSER=%composer%" %haslyrics%--tag-from-file=LYRICS="%lyricsfile%"%haslyrics% -T "DISCNUMBER=%cdnumber%" -T "TOTALDISCS=%totalcds%" -T "TOTALTRACKS=%numtracks%" %hascover%--picture="%coverfile%"%hascover% %source% -o %dest%

TOC of the extracted CD

Track | Start | Length | Start sector | End sector --------------------------------------------------------- 1 | 0:00.00 | 4:32.03 | 0 | 20402 2 | 4:32.03 | 7:40.37 | 20403 | 54939 3 | 12:12.40 | 8:24.64 | 54940 | 92803 4 | 20:37.29 | 4:10.41 | 92804 | 111594 5 | 24:47.70 | 6:48.65 | 111595 | 142259 6 | 31:36.60 | 8:20.30 | 142260 | 179789 7 | 39:57.15 | 4:29.68 | 179790 | 200032 8 | 44:27.08 | 2:23.38 | 200033 | 210795 9 | 46:50.46 | 3:00.09 | 210796 | 224304 10 | 49:50.55 | 5:12.20 | 224305 | 247724 11 | 55:03.00 | 7:27.37 | 247725 | 281286 12 | 62:30.37 | 6:45.65 | 281287 | 311726

Track 1

Filename D:\zzz\01 - Ageless Love (Remix).wav

Pre-gap length 0:00:02.00

Peak level 94.4 % Extraction speed 4.6 X Track quality 100.0 % Test CRC 49474036 Copy CRC 49474036 Track not present in AccurateRip database Copy OK

Track 2

Filename D:\zzz\02 - The Great Nostalgia.wav

Peak level 94.4 % Extraction speed 5.2 X Track quality 99.9 % Test CRC 90FBE051 Copy CRC 90FBE051 Track not present in AccurateRip database Copy OK

Track 3

Filename D:\zzz\03 - Message From The Shore.wav

Peak level 94.4 % Extraction speed 6.3 X Track quality 100.0 % Test CRC 0D6CDC65 Copy CRC 0D6CDC65 Track not present in AccurateRip database Copy OK

Track 4

Filename D:\zzz\04 - The Flower.wav

Peak level 94.4 % Extraction speed 6.4 X Track quality 100.0 % Test CRC 6AC264B0 Copy CRC 6AC264B0 Track not present in AccurateRip database Copy OK

Track 5

Filename D:\zzz\05 - There''s Still Hope.wav

Peak level 94.4 % Extraction speed 7.1 X Track quality 100.0 % Test CRC 1C520CE5 Copy CRC 1C520CE5 Track not present in AccurateRip database Copy OK

Track 6

Filename D:\zzz\06 - Autumn In Nepal (Steve Vai Remix).wav

Peak level 99.1 % Extraction speed 7.7 X Track quality 100.0 % Test CRC 6D84F814 Copy CRC 6D84F814 Track not present in AccurateRip database Copy OK

Track 7

Filename D:\zzz\07 - The Blue Gazebo.wav

Peak level 98.8 % Extraction speed 6.9 X Track quality 99.9 % Test CRC 1326C8A9 Copy CRC 1326C8A9 Track not present in AccurateRip database Copy OK

Track 8

Filename D:\zzz\08 - Nobody Wins In A War.wav

Peak level 94.4 % Extraction speed 7.1 X Track quality 100.0 % Test CRC 64C0FCC3 Copy CRC 64C0FCC3 Track not present in AccurateRip database Copy OK

Track 9

Filename D:\zzz\09 - Somewhere Over The Rainbow (Live At Zappanale 13).wav

Peak level 94.4 % Extraction speed 7.5 X Track quality 100.0 % Test CRC 9484C966 Copy CRC 9484C966 Track not present in AccurateRip database Copy OK

Track 10

Filename D:\zzz\10 - Magnet And Iron.wav

Peak level 94.4 % Extraction speed 8.4 X Track quality 100.0 % Test CRC 596EF18A Copy CRC 596EF18A Track not present in AccurateRip database Copy OK

Track 11

Filename D:\zzz\11 - White Bird , Ancient Wish.wav

Peak level 84.1 % Extraction speed 8.3 X Track quality 99.9 % Test CRC 40603C48 Copy CRC 40603C48 Track not present in AccurateRip database Copy OK

Track 12

Filename D:\zzz\12 - There''s Still Hope (Steve Vai Remix).wav

Peak level 99.4 % Extraction speed 9.2 X Track quality 100.0 % Test CRC 2A0F9863 Copy CRC 2A0F9863 Track not present in AccurateRip database Copy OK

None of the tracks are present in the AccurateRip database

No errors occurred

End of status report

==== Log checksum 05DB65E83B637EC5EE248960CB9D75AFEA81A184413DB7B98E41F4846BE82962 ====
REM GENRE "New Age"REM DATE 2007REM DISCID C9103C0CREM COMMENT "ExactAudioCopy v1.0b3"PERFORMER "Bob Harris"TITLE "The Great Nostalgia"FILE "01 - Ageless Love (Remix).wav" WAVE TRACK 01 AUDIO TITLE "Ageless Love (Remix)" PERFORMER "Bob Harris" INDEX 01 00:00:00FILE "02 - The Great Nostalgia.wav" WAVE TRACK 02 AUDIO TITLE "The Great Nostalgia" PERFORMER "Bob Harris" INDEX 01 00:00:00FILE "03 - Message From The Shore.wav" WAVE TRACK 03 AUDIO TITLE "Message From The Shore" PERFORMER "Bob Harris" INDEX 01 00:00:00FILE "04 - The Flower.wav" WAVE TRACK 04 AUDIO TITLE "The Flower" PERFORMER "Bob Harris" INDEX 01 00:00:00FILE "05 - There''s Still Hope.wav" WAVE TRACK 05 AUDIO TITLE "There''s Still Hope" PERFORMER "Bob Harris" INDEX 01 00:00:00FILE "06 - Autumn In Nepal (Steve Vai Remix).wav" WAVE TRACK 06 AUDIO TITLE "Autumn In Nepal (Steve Vai Remix)" PERFORMER "Bob Harris" INDEX 01 00:00:00FILE "07 - The Blue Gazebo.wav" WAVE TRACK 07 AUDIO TITLE "The Blue Gazebo" PERFORMER "Bob Harris" INDEX 01 00:00:00FILE "08 - Nobody Wins In A War.wav" WAVE TRACK 08 AUDIO TITLE "Nobody Wins In A War" PERFORMER "Bob Harris" INDEX 01 00:00:00FILE "09 - Somewhere Over The Rainbow (Live At Zappanale 13).wav" WAVE TRACK 09 AUDIO TITLE "Somewhere Over The Rainbow (Live At Zappanale 13)" PERFORMER "Bob Harris" INDEX 01 00:00:00FILE "10 - Magnet And Iron.wav" WAVE TRACK 10 AUDIO TITLE "Magnet And Iron" PERFORMER "Bob Harris" INDEX 01 00:00:00FILE "11 - White Bird , Ancient Wish.wav" WAVE TRACK 11 AUDIO TITLE "White Bird / Ancient Wish" PERFORMER "Bob Harris" INDEX 01 00:00:00FILE "12 - There''s Still Hope (Steve Vai Remix).wav" WAVE TRACK 12 AUDIO TITLE "There''s Still Hope (Steve Vai Remix)" PERFORMER "Bob Harris" INDEX 01 00:00:00
d:\>d:\aucdtect -d/-m0 d:\zzz\*.wavauCDtect: CD records authenticity detector, version 0.8.2Copyright (c) 2004 Oleg Berngardt. All rights reserved.Copyright (c) 2004 Alexander Djourik. All rights reserved.------------------------------------------------------------Processing file: [01. Ageless Love (Remix).wav]

------------------------------------------------------------This track looks like CDDA with probability 100%

------------------------------------------------------------Processing file: [02. The Great Nostalgia.wav]

------------------------------------------------------------This track looks like CDDA with probability 100%

------------------------------------------------------------Processing file: [03. Message From The Shore.wav]

------------------------------------------------------------This track looks like CDDA with probability 100%

------------------------------------------------------------Processing file: [04. The Flower.wav]

------------------------------------------------------------This track looks like CDDA with probability 100%

------------------------------------------------------------Processing file: [05. There''s Still Hope.wav]

------------------------------------------------------------This track looks like CDDA with probability 100%

------------------------------------------------------------Processing file: [06. Autumn In Nepal (Steve Vai Remix).wav]

------------------------------------------------------------Could not qualify the source of this track.

------------------------------------------------------------Processing file: [07. The Blue Gazebo.wav]

------------------------------------------------------------This track looks like CDDA with probability 58%

------------------------------------------------------------Processing file: [08. Nobody Wins In A War.wav]

------------------------------------------------------------This track looks like CDDA with probability 100%

------------------------------------------------------------Processing file: [09. Somewhere Over The Rainbow (Live At Zappanale 13).wav]

------------------------------------------------------------This track looks like CDDA with probability 100%

------------------------------------------------------------Processing file: [10. Magnet And Iron.wav]

------------------------------------------------------------This track looks like CDDA with probability 100%

------------------------------------------------------------Processing file: [11. White Bird - Ancient Wish.wav]

------------------------------------------------------------This track looks like CDDA with probability 99%

------------------------------------------------------------Processing file: [12. There''s Still Hope (Steve Vai Remix).wav]

------------------------------------------------------------This track looks like CDDA with probability 87%

------------------------------------------------------------Final Conclusion:------------------------------------------------------------These tracks looks like CDDA with probability 100%
Доп. информация:
Tracks 1,7,8,9,10 previously unreleased
Originally released in 1986 as Mastahna Records LP (MA-419)

All songs composed by Bob Harris except 9. (Harold Arlen & Isidore "Edgar Yipsel (E.Y.) Harburg" Hochberg) and 11. (David LaFlamme & Linda LaFlamme)

Tracks 1-7 and 12 recorded at Present Time Studio, engineered by Bob Wurster
Track 9 recorded live July 26, 2002 at Zappanale 13, Galopprennbahn, Bad Doberan, Germany
Tracks 7,8 recorded and/or overdubbed at The Church Of Rock And Roll, Denver, CO
Tracks 7,8,11 edited and mixed by Ian P. Gilchrist
Track 9 mixed by Hugo Moller at ASH Sounddesignery, Kuhlungsborn, Germany
Track 10 recorded at Dancing Dragon Studios, Grand Junction, CO
Track 11 tracked by Scott (Gusty) Christensen at NEH Studios, Denver, CO

Digital transfers and digital mastering by Ian P. Gilchrist
Final mastering by Greg Russo at Caldwell Studios, West Caldwell, NJ
Tracks 6 and 12 remixed by Steve Vai

All songs produced by Bob Harris except 8 and 7, which were produced by Bob Harris and Ian P. Gilchrist

Photo of Bob, Nathan and Suzannah (Thana) Harris by Eunice Bryanton

The Great Nostalgia, originally a self-financed release on his Mastahna label, has been remastered (and in some cases remixed) from the original session tapes.
More than twenty-one years after its first release, The Great Nostalgia has been expanded by six additional tracks. Frank Zappa heard the album in 1986 and thought that the track “Ageless Love” was outstanding and should kick off the album. Bob Harris, who is currently working with ''80s rock legends Axe, wanted to change the song order because he highly valued Zappa’s opinion, but the album had already been pressed. Out of respect for Frank Zappa, “Ageless Love” is now the first track on Crossfire’s reissue, and Jeremy Barber’s violin has replaced the original keyboard emulation of that instrument.
Suzannah (Thana) Harris, known to Zappa fans for her vocals on the revised Sleep Dirt album, can be found throughout The Great Nostalgia on the tracks “Ageless Love,” “The Flower” and three of the bonus tracks. Of the additions to the album, Thana and Bob’s duets on the standard “Somewhere Over The Rainbow” (live at the Zappanale 13 festival) and It’s A Beautiful Day’s “White Bird” (from Thana’s album Thanatopsis) are obvious highlights.
Guitar legend Steve Vai played electric sitar on “Autumn In Nepal,” presented here in Vai’s remixed version. He also played lead guitar on a remixed version of the bonus track “There’s Still Hope.” Fellow FZ band member Tommy Mars played on “Autumn In Nepal,” and noted bassist Stuart Hamm contributed to the track “The Flower.” Billy James, known to music fans as the Ant-Bee, played percussion on the entire album. James’ tasteful use of percussion instead of drum machines is a very important asset to the longevity of The Great Nostalgia, as it sounds fresh without the usual ‘80s trappings.
One instrumental track recorded at the original sessions, “The Blue Gazebo,” has been included on this edition. Two more recent tracks complete the album: the brilliant piano ballad “Magnet And Iron” and “Nobody Wins In A War,” featuring sped-up vocals from Bob, Thana and son Nathan Harris.
Bob Harris: vocals, backing vocals, keyboards, trumpet, instruments
Suzannah Harris: vocals (1,4), backing vocals (1,4), munchkin vocals (8)
Ronnie Sweeting: backing vocals (1,4)
Jeremy Barber: violin (1)
Billy James: tablas (1,2,4), snare drum (1), percussion (1,2,3,6), brushes (5,12)
Martin Schwartz: guitar (1), acoustic & electric guitars (4)
Ric Cunningham: alto sax (4)
Stuart Hamm: bass (4)
Corinne Larue: backing vocals (4)
Steve Vai: electric sitar (6,12)
Tommy Mars: recorder (6)
Nathan Harris: munchkin vocals (8), backing vocals (10)
Ian P. Gilchrist (8)
Blake Eberhard: bass (11)
Christian Teele: percussion & tablas (11)
Mario Lehmann: tibetan tingshaws (11)


Трекер:  [ 04-Янв-2014 16:31 ]

  

Скачать .torrent

Размер .torrent файла 16 KB


Размер: 366 MB
Хэш (hash) релиза: 0f6493d2333959f829f13999ae2f76fd34c75ce7

Еще никто не оставлял запись к записи скачать торрент . Будь первым!

!Обратная связь