Скачать порно через торрент Kowaku no Toki Время соблазнений UnionPeer.org бесплатно онлайн HD качество

Скачать новое порно 2015, 2014 новинки через торрент UnionPeer.org

Порно торрент бесплатно ЮнионПир.орг

Если у вас наблюдаются проблемы со скриншотами, переходом по ссылками, скачиванием торрентов - проблемы в блокировщике рекламы AdBlock. #хорошегоДня!


Статистика раздачи
Размер:  11.79 GB   |    Зарегистрирован:  3 года 7 месяцев   |    .torrent скачан:  177 раз   |   
Раздают:  1  
   
Загрузка...
 
Автор Сообщение

Galfimbul

avatar Galfimbul



蠱惑の刻 | Kowaku no Toki | Время соблазнений


Год выпуска: 2011
Страна: Япония
Жанр: bdsm, bestiality, fisting, oral sex, scat, torture
Продолжительность: >3 эп. по 30 мин.
Субтитры: Отсутствуют
Цензура: Присутствует
Студия: PoRO
Описание:
Within a western-style mansion located deep in the hills, an obscene ritual is taking place. Hongou Yukino is being trained as the new shrine maiden via harsh and shameful methods. Trapped as she is, all she can do is silently pray for deliverance. One day, an investigator by the name of Mibu Kyousuke happens upon the mansion...
Информационные ссылки: AniDB || MAL || World Art || ХентайМаг
Исходник: DVD-5
Видео: MPEG2 | NTSC | 16x9 | 720x480 | 7200 Kbps
Аудио JAP #1: AC-3 | 48000Hz | 192 Kbps | 2ch
Аудио JAP #2: AC-3 | 48000Hz | 192 Kbps | 2ch
01. Volume 1
02. Volume 2
03. Volume 3
General
Complete name : H:\VIDEO_TS\VTS_01_1.VOB
Format : MPEG-PS
File size : 1 024 MiB
Duration : 18mn 32s
Overall bit rate : 7 723 Kbps

Video
ID : 224 (0xE0)
Format : MPEG Video
Format version : Version 2
Format profile : Main@Main
Format settings, BVOP : Yes
Format settings, Matrix : Custom
Duration : 18mn 32s
Bit rate : 7 200 Kbps
Width : 720 pixels
Height : 480 pixels
Display aspect ratio : 16:9
Frame rate : 29.970 fps
Standard : NTSC
Color space : YUV
Chroma subsampling : 4:2:0
Bit depth : 8 bits
Scan type : Interlaced
Scan order : Top Field First
Compression mode : Lossy
Bits/(Pixel*Frame) : 0.695
Stream size : 953 MiB (93%)

Audio #1
ID : 189 (0xBD)-128 (0x80)
Format : AC-3
Format/Info : Audio Coding 3
Mode extension : CM (complete main)
Muxing mode : DVD-Video
Duration : 18mn 32s
Bit rate mode : Constant
Bit rate : 192 Kbps
Channel(s) : 2 channels
Channel positions : Front: L R
Sampling rate : 48.0 KHz
Bit depth : 16 bits
Compression mode : Lossy
Stream size : 25.5 MiB (2%)

Audio #2
ID : 189 (0xBD)-129 (0x81)
Format : AC-3
Format/Info : Audio Coding 3
Mode extension : CM (complete main)
Muxing mode : DVD-Video
Duration : 18mn 32s
Bit rate mode : Constant
Bit rate : 192 Kbps
Channel(s) : 2 channels
Channel positions : Front: L R
Sampling rate : 48.0 KHz
Bit depth : 16 bits
Compression mode : Lossy
Stream size : 25.5 MiB (2%)


Исходник: DVD-5
Видео: MPEG2 | NTSC | 16x9 | 720x480 | 7200 Kbps
Аудио JAP #1: AC-3 | 48000Hz | 192 Kbps | 2ch
Аудио JAP #2: AC-3 | 48000Hz | 192 Kbps | 2ch
General
Complete name : H:\VIDEO_TS\VTS_01_1.VOB
Format : MPEG-PS
File size : 1 024 MiB
Duration : 18mn 31s
Overall bit rate : 7 723 Kbps

Video
ID : 224 (0xE0)
Format : MPEG Video
Format version : Version 2
Format profile : Main@Main
Format settings, BVOP : Yes
Format settings, Matrix : Custom
Duration : 18mn 31s
Bit rate : 7 200 Kbps
Width : 720 pixels
Height : 480 pixels
Display aspect ratio : 16:9
Frame rate : 29.970 fps
Standard : NTSC
Color space : YUV
Chroma subsampling : 4:2:0
Bit depth : 8 bits
Scan type : Interlaced
Scan order : Top Field First
Compression mode : Lossy
Bits/(Pixel*Frame) : 0.695
Stream size : 952 MiB (93%)

Audio #1
ID : 189 (0xBD)-128 (0x80)
Format : AC-3
Format/Info : Audio Coding 3
Mode extension : CM (complete main)
Muxing mode : DVD-Video
Duration : 18mn 31s
Bit rate mode : Constant
Bit rate : 192 Kbps
Channel(s) : 2 channels
Channel positions : Front: L R
Sampling rate : 48.0 KHz
Bit depth : 16 bits
Compression mode : Lossy
Stream size : 25.4 MiB (2%)

Audio #2
ID : 189 (0xBD)-129 (0x81)
Format : AC-3
Format/Info : Audio Coding 3
Mode extension : CM (complete main)
Muxing mode : DVD-Video
Duration : 18mn 31s
Bit rate mode : Constant
Bit rate : 192 Kbps
Channel(s) : 2 channels
Channel positions : Front: L R
Sampling rate : 48.0 KHz
Bit depth : 16 bits
Compression mode : Lossy
Stream size : 25.4 MiB (2%)


Исходник: DVD-5
Видео: MPEG2 | NTSC | 16x9 | 720x480 | 7200 Kbps
Аудио JAP #1: AC-3 | 48000Hz | 192 Kbps | 2ch
Аудио JAP #2: AC-3 | 48000Hz | 192 Kbps | 2ch
General
Complete name : L:\VIDEO_TS\VTS_01_1.VOB
Format : MPEG-PS
File size : 1 024 MiB
Duration : 18mn 31s
Overall bit rate : 7 723 Kbps

Video
ID : 224 (0xE0)
Format : MPEG Video
Format version : Version 2
Format profile : Main@Main
Format settings, BVOP : Yes
Format settings, Matrix : Custom
Duration : 18mn 31s
Bit rate : 7 200 Kbps
Width : 720 pixels
Height : 480 pixels
Display aspect ratio : 16:9
Frame rate : 29.970 fps
Standard : NTSC
Color space : YUV
Chroma subsampling : 4:2:0
Bit depth : 8 bits
Scan type : Interlaced
Scan order : Top Field First
Compression mode : Lossy
Bits/(Pixel*Frame) : 0.695
Stream size : 952 MiB (93%)

Audio #1
ID : 189 (0xBD)-128 (0x80)
Format : AC-3
Format/Info : Audio Coding 3
Mode extension : CM (complete main)
Muxing mode : DVD-Video
Duration : 18mn 31s
Bit rate mode : Constant
Bit rate : 192 Kbps
Channel(s) : 2 channels
Channel positions : Front: L R
Sampling rate : 48.0 KHz
Bit depth : 16 bits
Compression mode : Lossy
Stream size : 25.4 MiB (2%)

Audio #2
ID : 189 (0xBD)-129 (0x81)
Format : AC-3
Format/Info : Audio Coding 3
Mode extension : CM (complete main)
Muxing mode : DVD-Video
Duration : 18mn 31s
Bit rate mode : Constant
Bit rate : 192 Kbps
Channel(s) : 2 channels
Channel positions : Front: L R
Sampling rate : 48.0 KHz
Bit depth : 16 bits
Compression mode : Lossy
Stream size : 25.4 MiB (2%)


Трекер:  [ 03-Янв-2014 17:51 ]

  

Скачать .torrent

Размер .torrent файла 59 KB


Размер: 11.79 GB
Хэш (hash) релиза: f05956021d6b3ad74c1cacf3e1a7160afeab8157

Еще никто не оставлял запись к записи скачать торрент Kowaku no Toki Время соблазнений . Будь первым!

!Обратная связь