Скачать порно через торрент Soredemo Tsuma o Aishiteru Я всё ещё люблю свою жену UnionPeer.org бесплатно онлайн HD качество

Скачать новое порно 2015, 2014 новинки через торрент UnionPeer.org

Порно торрент бесплатно ЮнионПир.орг

Если у вас наблюдаются проблемы со скриншотами, переходом по ссылками, скачиванием торрентов - проблемы в блокировщике рекламы AdBlock. #хорошегоДня!


Статистика раздачи
Размер:  4.23 GB   |    Зарегистрирован:  3 года 7 месяцев   |    .torrent скачан:  262 раза   |   
Раздают:  1  
   
Загрузка...
 
Автор Сообщение

Galfimbul

avatar Galfimbul


それでも妻を愛してる | Soredemo Tsuma o Aishiteru | Я всё ещё люблю свою жену
Год выпуска: 2011
Страна: Япония
Жанр: anal sex, drama, oral sex, rape, virgins
Продолжительность: >3 эп. по 30 мин.
Субтитры: Отсутствуют
Цензура: Присутствует
Студия: T-Rex
Описание:
Nanami is happily married. While using a public bathroom, she is caught on camera by the building manager, Kamata. Using the video footage as blackmail, Kamata now has complete control over her, and Nanami soon finds herself enjoying the sexual acts she is being forced into.
Информационные ссылки: AniDB || MAL || World Art || ХентайМаг
Исходник: DVD-5
Видео: MPEG2 | NTSC | 16x9 | 720x480 | 8000 Kbps
Аудио JAP: AC-3 | 48000Hz | 192 Kbps | 2ch
01. Volume 1
02. Volume 2
03. The Price of Jealousy
General
Complete name : H:\VIDEO_TS\VTS_01_1.VOB
Format : MPEG-PS
File size : 1 024 MiB
Duration : 17mn 3s
Overall bit rate : 8 391 Kbps

Video
ID : 224 (0xE0)
Format : MPEG Video
Format version : Version 2
Format profile : Main@Main
Format settings, BVOP : Yes
Format settings, Matrix : Custom
Format settings, GOP : M=3, N=15
Duration : 17mn 3s
Bit rate : 8 000 Kbps
Width : 720 pixels
Height : 480 pixels
Display aspect ratio : 16:9
Frame rate : 29.970 fps
Standard : NTSC
Color space : YUV
Chroma subsampling : 4:2:0
Bit depth : 8 bits
Scan type : Interlaced
Scan order : Top Field First
Compression mode : Lossy
Bits/(Pixel*Frame) : 0.772
Stream size : 980 MiB (96%)

Audio
ID : 189 (0xBD)-128 (0x80)
Format : AC-3
Format/Info : Audio Coding 3
Mode extension : CM (complete main)
Muxing mode : DVD-Video
Duration : 17mn 3s
Bit rate mode : Constant
Bit rate : 192 Kbps
Channel(s) : 2 channels
Channel positions : Front: L R
Sampling rate : 48.0 KHz
Bit depth : 16 bits
Compression mode : Lossy
Delay relative to video : -66ms
Stream size : 23.4 MiB (2%)
Исходник: DVD-5
Видео: MPEG2 | NTSC | 16x9 | 720x480 | 8400 Kbps
Аудио JAP: AC-3 | 48000Hz | 192 Kbps | 2ch
General
Complete name : H:\VIDEO_TS\VTS_01_1.VOB
Format : MPEG-PS
File size : 1 024 MiB
Duration : 52s 697ms
Overall bit rate : 163 Mbps

Video
ID : 224 (0xE0)
Format : MPEG Video
Format version : Version 2
Format profile : Main@Main
Format settings, BVOP : Yes
Format settings, Matrix : Custom
Format settings, GOP : M=3, N=15
Duration : 52s 697ms
Bit rate : 160 Mbps
Maximum bit rate : 8 400 Kbps
Width : 720 pixels
Height : 480 pixels
Display aspect ratio : 16:9
Frame rate : 29.970 fps
Standard : NTSC
Color space : YUV
Chroma subsampling : 4:2:0
Bit depth : 8 bits
Scan type : Interlaced
Scan order : Top Field First
Compression mode : Lossy
Bits/(Pixel*Frame) : 15.401
Stream size : 1 002 MiB (98%)

Audio
ID : 189 (0xBD)-128 (0x80)
Format : AC-3
Format/Info : Audio Coding 3
Mode extension : CM (complete main)
Muxing mode : DVD-Video
Duration : 52s 578ms
Bit rate mode : Constant
Bit rate : 192 Kbps
Channel(s) : 2 channels
Channel positions : Front: L R
Sampling rate : 48.0 KHz
Bit depth : 16 bits
Compression mode : Lossy
Delay relative to video : -66ms
Stream size : 1.20 MiB (0%)
Исходник: DVD-5
Видео: MPEG2 | NTSC | 16x9 | 720x480 | 8380 Kbps
Аудио JAP: AC-3 | 48000Hz | 224 Kbps | 2ch
General
Complete name : L:\VIDEO_TS\VTS_01_1.VOB
Format : MPEG-PS
File size : 907 MiB
Duration : 2mn 0s
Overall bit rate : 62.9 Mbps

Video
ID : 224 (0xE0)
Format : MPEG Video
Format version : Version 2
Format profile : Main@Main
Format settings, BVOP : Yes
Format settings, Matrix : Default
Format settings, GOP : M=3, N=12
Duration : 2mn 0s
Bit rate : 61.4 Mbps
Maximum bit rate : 8 380 Kbps
Width : 720 pixels
Height : 480 pixels
Display aspect ratio : 16:9
Frame rate : 29.970 fps
Standard : NTSC
Color space : YUV
Chroma subsampling : 4:2:0
Bit depth : 8 bits
Scan type : Interlaced
Scan order : Bottom Field First
Compression mode : Lossy
Bits/(Pixel*Frame) : 5.927
Stream size : 885 MiB (98%)

Audio
ID : 189 (0xBD)-128 (0x80)
Format : AC-3
Format/Info : Audio Coding 3
Mode extension : CM (complete main)
Muxing mode : DVD-Video
Duration : 2mn 0s
Bit rate mode : Constant
Bit rate : 224 Kbps
Channel(s) : 2 channels
Channel positions : Front: L R
Sampling rate : 48.0 KHz
Bit depth : 16 bits
Compression mode : Lossy
Delay relative to video : -66ms
Stream size : 3.23 MiB (0%)



Трекер:  [ 03-Янв-2014 15:11 ]

  

Скачать .torrent

Размер .torrent файла 21 KB


Размер: 4.23 GB
Хэш (hash) релиза: 1e04c0dd942aec553be98bf251ea058217900a00

Торренты, похожие на Soredemo Tsuma o Aishiteru Я всё ещё люблю свою жену скачать торрент

Форум Название Автор Размер S L Добавлен
Хентай, порно и эротические мультфильмы ·· Soredemo Tsuma o Aishiteru / Я все еще люблю свою жену (T-Rex) (ep. 1-3 of 3) [cen] [2011-2013 г. Netorare, Rape, Oral, Anal, Group, X-Ray, Pissing, Big Tits, Bukkake, DVDRip] [jap / eng / chi /rus] Galfimbul 664856852634 MB 0 0 1421758233

15:50

20-Янв-15

Хентай | С цензурой ·· Soredemo Tsuma o Aishiteru / Я все еще люблю свою жену (T-Rex) (ep. 1-3 of 3) [cen] [2011-2013 г. Netorare, Rape, Oral, Anal, Group, X-Ray, Pissing, Big Tits, Bukkake, DVDRip] [jap / eng(2) / rus(2)] LinGr 977280721932 MB 0 0 1379795631

23:33

21-Сен-13

Хентай, порно и эротические мультфильмы ·· Soredemo Tsuma o Aishiteru / Я всё ещё люблю свою жену (Lune Team Bitters, T-Rex) (ep. 1-2 of 2) [cen] [2011 г., Anal sex, Drama, Oral sex, Rape, Virgin, DVD5] [jap] Galfimbul 35877437443.34 GB 0 0 1337847540

11:19

24-Май-12

Хентай, порно и эротические мультфильмы ·· Soredemo Tsuma o Aishiteru / Even So, I Love My Wife / Я все еще люблю свою жену (T-Rex, Marigold, Lune Team Bitters) (ep. 1-2 of 2) [cen] [2011 г., Drama, Oral sex, Anal sex, Rape, Virgin, DVDRip] [jap/eng/rus] [720p] Galfimbul 14037696971.31 GB 0 0 1343973540

08:59

3-Авг-12

Еще никто не оставлял запись к записи скачать торрент Soredemo Tsuma o Aishiteru Я всё ещё люблю свою жену . Будь первым!

!Обратная связь