Скачать через торрент музыку бесплатно без регистрации torrent

Если у вас наблюдаются проблемы со скриншотами, переходом по ссылками, скачиванием торрентов - проблемы в блокировщике рекламы AdBlock. #хорошегоДня!


Статистика раздачи
Размер:  649 MB   |    Зарегистрирован:  3 года 9 месяцев   |    .torrent скачан:  126 раз   |   
Раздают:  1  
   
Загрузка...
 
Автор Сообщение

Galfimbul

avatar Galfimbul


Joanne Shaw Taylor / Songs from the Road

Жанр: Blues-Rock
Носитель: CD
Год издания: 2013
Издатель (лейбл): Ruf Records
Номер по каталогу: RUF 1197
Аудиокодек: FLAC (*.flac)
Тип рипа: tracks+.cue
Битрейт аудио: lossless
Продолжительность: 76:33
Источник (релизер): Источник - Вата, релизер - dirto
Наличие сканов в содержимом раздачи: да
Треклист:
01. Soul Station
02. Tied & Bound
03. Beautifully Broken
04. Watch ''Em Burn
05. Diamonds in the Dirt
06. Manic Depression
07. Jealousy
08. Kiss the Ground Goodbye
09. Just Another Word
10. Band Introductions
11. Jump That Train
12. Going Home
X Lossless Decoder version 20131102 (145.0)

XLD extraction logfile from 2013-11-06 15:38:57 +0100

Joanne Shaw Taylor / Songs from the Road

Used drive : PLEXTOR BD-ROM PX-B120U (revision 1.06)Media type : Pressed CD

Ripper mode : XLD Secure RipperDisable audio cache : OK for the drive with a cache less than 1375KiBMake use of C2 pointers : NORead offset correction : 696Max retry count : 100Gap status : Analyzed, Appended (except HTOA)

TOC of the extracted CD Track | Start | Length | Start sector | End sector --------------------------------------------------------- 1 | 00:00:00 | 05:56:36 | 0 | 26735 2 | 05:56:36 | 06:42:62 | 26736 | 56947 3 | 12:39:23 | 07:31:48 | 56948 | 90820 4 | 20:10:71 | 10:07:69 | 90821 | 136414 5 | 30:18:65 | 06:51:55 | 136415 | 167294 6 | 37:10:45 | 07:37:52 | 167295 | 201621 7 | 44:48:22 | 07:10:04 | 201622 | 233875 8 | 51:58:26 | 07:26:62 | 233876 | 267387 9 | 59:25:13 | 04:24:18 | 267388 | 287205 10 | 63:49:31 | 00:30:11 | 287206 | 289466 11 | 64:19:42 | 06:37:14 | 289467 | 319255 12 | 70:56:56 | 05:35:74 | 319256 | 344454

AccurateRip Summary Disc not found in AccurateRip DB.

All Tracks Album gain : -6.65 dB Peak : 0.988617 Statistics Read error : 0 Jitter error (maybe fixed) : 0 Retry sector count : 0 Damaged sector count : 0

Track 01 Filename : /Users/user/Music/Joanne Shaw Taylor - Songs from the Road (2013) [Apple Lossless]/01 Soul Station.m4a /Users/user/Music/Joanne Shaw Taylor - Songs from the Road (2013) [FLAC (level 8)]/01 Soul Station.flac Pre-gap length : 00:02:00

Track gain : -7.14 dB Peak : 0.988617 CRC32 hash (test run) : E3F03272 CRC32 hash : E3F03272 CRC32 hash (skip zero) : D2222807 AccurateRip v1 signature : DBD0D34A AccurateRip v2 signature : D2BF0DB9 ->Track not present in AccurateRip database. Statistics Read error : 0 Jitter error (maybe fixed) : 0 Retry sector count : 0 Damaged sector count : 0

Track 02 Filename : /Users/user/Music/Joanne Shaw Taylor - Songs from the Road (2013) [Apple Lossless]/02 Tied & Bound.m4a /Users/user/Music/Joanne Shaw Taylor - Songs from the Road (2013) [FLAC (level 8)]/02 Tied & Bound.flac

Track gain : -6.18 dB Peak : 0.988617 CRC32 hash (test run) : A44C5B99 CRC32 hash : A44C5B99 CRC32 hash (skip zero) : C5653771 AccurateRip v1 signature : BA7E8A85 AccurateRip v2 signature : BB647950 ->Track not present in AccurateRip database. Statistics Read error : 0 Jitter error (maybe fixed) : 0 Retry sector count : 0 Damaged sector count : 0

Track 03 Filename : /Users/user/Music/Joanne Shaw Taylor - Songs from the Road (2013) [Apple Lossless]/03 Beautifully Broken.m4a /Users/user/Music/Joanne Shaw Taylor - Songs from the Road (2013) [FLAC (level 8)]/03 Beautifully Broken.flac

Track gain : -6.32 dB Peak : 0.988617 CRC32 hash (test run) : 4E926511 CRC32 hash : 4E926511 CRC32 hash (skip zero) : FA0377E8 AccurateRip v1 signature : A018F49F AccurateRip v2 signature : 8165CDCB ->Track not present in AccurateRip database. Statistics Read error : 0 Jitter error (maybe fixed) : 0 Retry sector count : 0 Damaged sector count : 0

Track 04 Filename : /Users/user/Music/Joanne Shaw Taylor - Songs from the Road (2013) [Apple Lossless]/04 Watch ''Em Burn.m4a /Users/user/Music/Joanne Shaw Taylor - Songs from the Road (2013) [FLAC (level 8)]/04 Watch ''Em Burn.flac

Track gain : -6.53 dB Peak : 0.988617 CRC32 hash (test run) : B66D2884 CRC32 hash : B66D2884 CRC32 hash (skip zero) : 014FF18E AccurateRip v1 signature : A1AB3308 AccurateRip v2 signature : 5C2B0F3C ->Track not present in AccurateRip database. Statistics Read error : 0 Jitter error (maybe fixed) : 0 Retry sector count : 0 Damaged sector count : 0

Track 05 Filename : /Users/user/Music/Joanne Shaw Taylor - Songs from the Road (2013) [Apple Lossless]/05 Diamonds in the Dirt.m4a /Users/user/Music/Joanne Shaw Taylor - Songs from the Road (2013) [FLAC (level 8)]/05 Diamonds in the Dirt.flac

Track gain : -6.27 dB Peak : 0.988586 CRC32 hash (test run) : 6CA9D277 CRC32 hash : 6CA9D277 CRC32 hash (skip zero) : 97AAB7E4 AccurateRip v1 signature : B6727B29 AccurateRip v2 signature : A7EAA2DB ->Track not present in AccurateRip database. Statistics Read error : 0 Jitter error (maybe fixed) : 0 Retry sector count : 0 Damaged sector count : 0

Track 06 Filename : /Users/user/Music/Joanne Shaw Taylor - Songs from the Road (2013) [Apple Lossless]/06 Manic Depression.m4a /Users/user/Music/Joanne Shaw Taylor - Songs from the Road (2013) [FLAC (level 8)]/06 Manic Depression.flac

Track gain : -6.00 dB Peak : 0.988586 CRC32 hash (test run) : A1E524F3 CRC32 hash : A1E524F3 CRC32 hash (skip zero) : 47796D1B AccurateRip v1 signature : 37DC9DC8 AccurateRip v2 signature : 7CE36230 ->Track not present in AccurateRip database. Statistics Read error : 0 Jitter error (maybe fixed) : 0 Retry sector count : 0 Damaged sector count : 0

Track 07 Filename : /Users/user/Music/Joanne Shaw Taylor - Songs from the Road (2013) [Apple Lossless]/07 Jealousy.m4a /Users/user/Music/Joanne Shaw Taylor - Songs from the Road (2013) [FLAC (level 8)]/07 Jealousy.flac

Track gain : -6.51 dB Peak : 0.988586 CRC32 hash (test run) : 72760719 CRC32 hash : 72760719 CRC32 hash (skip zero) : EFA0F179 AccurateRip v1 signature : C353FECC AccurateRip v2 signature : 44CA5640 ->Track not present in AccurateRip database. Statistics Read error : 0 Jitter error (maybe fixed) : 0 Retry sector count : 0 Damaged sector count : 0

Track 08 Filename : /Users/user/Music/Joanne Shaw Taylor - Songs from the Road (2013) [Apple Lossless]/08 Kiss the Ground Goodbye.m4a /Users/user/Music/Joanne Shaw Taylor - Songs from the Road (2013) [FLAC (level 8)]/08 Kiss the Ground Goodbye.flac

Track gain : -6.84 dB Peak : 0.988586 CRC32 hash (test run) : 3C22BF2F CRC32 hash : 3C22BF2F CRC32 hash (skip zero) : EC786F6B AccurateRip v1 signature : F5A74FC1 AccurateRip v2 signature : 25EB79F9 ->Track not present in AccurateRip database. Statistics Read error : 0 Jitter error (maybe fixed) : 0 Retry sector count : 0 Damaged sector count : 0

Track 09 Filename : /Users/user/Music/Joanne Shaw Taylor - Songs from the Road (2013) [Apple Lossless]/09 Just Another Word.m4a /Users/user/Music/Joanne Shaw Taylor - Songs from the Road (2013) [FLAC (level 8)]/09 Just Another Word.flac

Track gain : -6.15 dB Peak : 0.988617 CRC32 hash (test run) : 22812D0C CRC32 hash : 22812D0C CRC32 hash (skip zero) : DC964F62 AccurateRip v1 signature : 4343090B AccurateRip v2 signature : 454E1A00 ->Track not present in AccurateRip database. Statistics Read error : 0 Jitter error (maybe fixed) : 0 Retry sector count : 0 Damaged sector count : 0

Track 10 Filename : /Users/user/Music/Joanne Shaw Taylor - Songs from the Road (2013) [Apple Lossless]/10 Band Introductions.m4a /Users/user/Music/Joanne Shaw Taylor - Songs from the Road (2013) [FLAC (level 8)]/10 Band Introductions.flac

Track gain : -3.17 dB Peak : 0.865906 CRC32 hash (test run) : 7F43209D CRC32 hash : 7F43209D CRC32 hash (skip zero) : B461E747 AccurateRip v1 signature : 40E20DC4 AccurateRip v2 signature : 760D8537 ->Track not present in AccurateRip database. Statistics Read error : 0 Jitter error (maybe fixed) : 0 Retry sector count : 0 Damaged sector count : 0

Track 11 Filename : /Users/user/Music/Joanne Shaw Taylor - Songs from the Road (2013) [Apple Lossless]/11 Jump That Train.m4a /Users/user/Music/Joanne Shaw Taylor - Songs from the Road (2013) [FLAC (level 8)]/11 Jump That Train.flac

Track gain : -6.84 dB Peak : 0.988617 CRC32 hash (test run) : 11745071 CRC32 hash : 11745071 CRC32 hash (skip zero) : C117E701 AccurateRip v1 signature : 5C99783D AccurateRip v2 signature : 3F65BF8C ->Track not present in AccurateRip database. Statistics Read error : 0 Jitter error (maybe fixed) : 0 Retry sector count : 0 Damaged sector count : 0

Track 12 Filename : /Users/user/Music/Joanne Shaw Taylor - Songs from the Road (2013) [Apple Lossless]/12 Going Home.m4a /Users/user/Music/Joanne Shaw Taylor - Songs from the Road (2013) [FLAC (level 8)]/12 Going Home.flac

Track gain : -8.36 dB Peak : 0.988617 CRC32 hash (test run) : 0F2D7F4C CRC32 hash : 0F2D7F4C CRC32 hash (skip zero) : 59D0E166 AccurateRip v1 signature : 2C6C846F AccurateRip v2 signature : 4673958F ->Track not present in AccurateRip database. Statistics Read error : 0 Jitter error (maybe fixed) : 0 Retry sector count : 0 Damaged sector count : 0

No errors occurred

End of status report

-----BEGIN XLD SIGNATURE-----EtxS9BvKpKdliiEDE949SGctrP0.7vYe_NSBPQAN61BhCBlhg0L3jsonqVyLwr6fPHw9YdsyGLUfG3gPLRLh3DXxis.UTYmbFLE6v5S-----END XLD SIGNATURE-----
TITLE "Songs from the Road"PERFORMER "Joanne Shaw Taylor"REM GENRE "Blues"REM DATE "2013"REM DISCNUMBER 1REM TOTALDISCS 1REM DISCID 9A11F00CREM REPLAYGAIN_ALBUM_GAIN -6.65 dBREM REPLAYGAIN_ALBUM_PEAK 0.988617FILE "01 Soul Station.wav" WAVE TRACK 01 AUDIO TITLE "Soul Station" PERFORMER "Joanne Shaw Taylor" SONGWRITER "Joanne Shaw Taylor" ISRC DEFR11300115 REM REPLAYGAIN_TRACK_GAIN -7.14 dB REM REPLAYGAIN_TRACK_PEAK 0.988617 INDEX 01 00:00:00FILE "02 Tied & Bound.wav" WAVE TRACK 02 AUDIO TITLE "Tied & Bound" PERFORMER "Joanne Shaw Taylor" SONGWRITER "Joanne Shaw Taylor" ISRC DEFR11300116 REM REPLAYGAIN_TRACK_GAIN -6.18 dB REM REPLAYGAIN_TRACK_PEAK 0.988617 INDEX 01 00:00:00FILE "03 Beautifully Broken.wav" WAVE TRACK 03 AUDIO TITLE "Beautifully Broken" PERFORMER "Joanne Shaw Taylor" SONGWRITER "Joanne Shaw Taylor" ISRC DEFR11300117 REM REPLAYGAIN_TRACK_GAIN -6.32 dB REM REPLAYGAIN_TRACK_PEAK 0.988617 INDEX 01 00:00:00FILE "04 Watch ''Em Burn.wav" WAVE TRACK 04 AUDIO TITLE "Watch ''Em Burn" PERFORMER "Joanne Shaw Taylor" SONGWRITER "Joanne Shaw Taylor" ISRC DEFR11300118 REM REPLAYGAIN_TRACK_GAIN -6.53 dB REM REPLAYGAIN_TRACK_PEAK 0.988617 INDEX 01 00:00:00FILE "05 Diamonds in the Dirt.wav" WAVE TRACK 05 AUDIO TITLE "Diamonds in the Dirt" PERFORMER "Joanne Shaw Taylor" SONGWRITER "Joanne Shaw Taylor" ISRC DEFR11300119 REM REPLAYGAIN_TRACK_GAIN -6.27 dB REM REPLAYGAIN_TRACK_PEAK 0.988586 INDEX 01 00:00:00FILE "06 Manic Depression.wav" WAVE TRACK 06 AUDIO TITLE "Manic Depression" PERFORMER "Joanne Shaw Taylor" SONGWRITER "Joanne Shaw Taylor" ISRC DEFR11300120 REM REPLAYGAIN_TRACK_GAIN -6.00 dB REM REPLAYGAIN_TRACK_PEAK 0.988586 INDEX 01 00:00:00FILE "07 Jealousy.wav" WAVE TRACK 07 AUDIO TITLE "Jealousy" PERFORMER "Joanne Shaw Taylor" SONGWRITER "Joanne Shaw Taylor" ISRC DEFR11300121 REM REPLAYGAIN_TRACK_GAIN -6.51 dB REM REPLAYGAIN_TRACK_PEAK 0.988586 INDEX 01 00:00:00FILE "08 Kiss the Ground Goodbye.wav" WAVE TRACK 08 AUDIO TITLE "Kiss the Ground Goodbye" PERFORMER "Joanne Shaw Taylor" SONGWRITER "Joanne Shaw Taylor" ISRC DEFR11300122 REM REPLAYGAIN_TRACK_GAIN -6.84 dB REM REPLAYGAIN_TRACK_PEAK 0.988586 INDEX 01 00:00:00FILE "09 Just Another Word.wav" WAVE TRACK 09 AUDIO TITLE "Just Another Word" PERFORMER "Joanne Shaw Taylor" SONGWRITER "Joanne Shaw Taylor" ISRC DEFR11300123 REM REPLAYGAIN_TRACK_GAIN -6.15 dB REM REPLAYGAIN_TRACK_PEAK 0.988617 INDEX 01 00:00:00FILE "10 Band Introductions.wav" WAVE TRACK 10 AUDIO TITLE "Band Introductions" PERFORMER "Joanne Shaw Taylor" SONGWRITER "Joanne Shaw Taylor" ISRC DEFR11300124 REM REPLAYGAIN_TRACK_GAIN -3.17 dB REM REPLAYGAIN_TRACK_PEAK 0.865906 INDEX 01 00:00:00FILE "11 Jump That Train.wav" WAVE TRACK 11 AUDIO TITLE "Jump That Train" PERFORMER "Joanne Shaw Taylor" SONGWRITER "Joanne Shaw Taylor" ISRC DEFR11300125 REM REPLAYGAIN_TRACK_GAIN -6.84 dB REM REPLAYGAIN_TRACK_PEAK 0.988617 INDEX 01 00:00:00FILE "12 Going Home.wav" WAVE TRACK 12 AUDIO TITLE "Going Home" PERFORMER "Joanne Shaw Taylor" SONGWRITER "Joanne Shaw Taylor" ISRC DEFR11300126 REM REPLAYGAIN_TRACK_GAIN -8.36 dB REM REPLAYGAIN_TRACK_PEAK 0.988617 INDEX 01 00:00:00
AUDIOCHECKER v2.0 beta (build 457) - by Dester - opdester@freemail.hu~~~~~~~~~~~~~~~~~~~~~~~~~~~~~~~~~~-=== DO NOT EDIT THIS FILE! ===-

Path: ...\Joanne Shaw Taylor - Songs from the Road (2013) [FLAC]

01 -=- 01 Soul Station.flac -=- CDDA (100%)02 -=- 02 Tied & Bound.flac -=- CDDA (100%)03 -=- 03 Beautifully Broken.flac -=- CDDA (100%)04 -=- 04 Watch ''Em Burn.flac -=- CDDA (100%)05 -=- 05 Diamonds in the Dirt.flac -=- CDDA (100%)06 -=- 06 Manic Depression.flac -=- CDDA (100%)07 -=- 07 Jealousy.flac -=- CDDA (100%)08 -=- 08 Kiss the Ground Goodbye.flac -=- CDDA (100%)09 -=- 09 Just Another Word.flac -=- CDDA (100%)10 -=- 10 Band Introductions.flac -=- CDDA (100%)11 -=- 11 Jump That Train.flac -=- CDDA (100%)12 -=- 12 Going Home.flac -=- CDDA (99%)

Summary 99,92% CDDA

104350276
One night. One shot. No safety net. If there was pressure afoot as Joanne Shaw Taylor walked onstage at The Borderline on May 12th, 2013, then the bandleader used it as rocket-fuel, channeling the vibe into the set of her life. Now, six months later, that explosive performance is captured on ''Songs from the Road'' - a live album with the soul power to jostle the greats off the podium. "I''m really pleased with it," says Joanne. "It''s everything I wanted it to be." As the latest release in Ruf Records'' legendary Songs from the Road series, this CD/DVD set is the live album you''ve been screaming for. "The timing is good," agrees Joanne. "My fans, and especially the blues fans, have been asking me for a live album for a while now. I''m glad that we waited, and didn''t do it two years ago, because hopefully I''ve improved. We''ve done three studio albums now, so I think the live album ties all the albums together." A seasoned road-warrior since 2009''s debut album ''White Sugar'', Joanne has nothing to fear from the stage, but the demands of her diary meant Songs From The Road presented a logistical challenge. "We only had one chance to do it because of my schedule," she reflects. "If I''d have played terribly - which fortunately I don''t think I did - it would have been unusable. It worked out really well, and I think a big part of that is because the fans were so good. "We wanted to do it in London," Joanne continues, "and the reason for picking The Borderline was because I wanted something small and intimate. I grew up being inspired by those small Stevie Ray Vaughan and Albert Collins club gigs, and I wanted to have that same ''everyone-packed-in-like-sardines'' vibe - as opposed to a big production and losing some of that intimacy."


Трекер:  [ 02-Янв-2014 00:42 ]

  

Скачать .torrent

Размер .torrent файла 14 KB


Размер: 649 MB
Хэш (hash) релиза: cb2de52c144b00b7034ddcbc457920c18fb3b97d

Еще никто не оставлял запись к записи скачать торрент . Будь первым!

!Обратная связь