Скачать через торрент музыку Grand Corps Malade, Richard Bohringer, Leslie Bourdin - Funambule - Musique Acoustic от 31.12.2013 - TV5MONDE бесплатно без регистрации torrent

Если у вас наблюдаются проблемы со скриншотами, переходом по ссылками, скачиванием торрентов - проблемы в блокировщике рекламы AdBlock. #хорошегоДня!


Статистика раздачи
Размер:  758 MB   |    Зарегистрирован:  3 года 10 месяцев   |    .torrent скачан:  110 раз   |   
Раздают:  1  
   
Загрузка...
 
Автор Сообщение

Galfimbul

avatar Galfimbul


Grand Corps Malade - Funambule
Musique Acoustic от 31.12.2013 - TV5MONDE
Страна: Франция
Жанр: Slam, Variété française, Live
Продолжительность: 00:25:45
Год выпуска: 2013 г.Режиссер: Филипп Сомме / Philippe Sommet

Описание: Музыкальная передача Musique Acoustic канала французского телевидения TV5MONDE представляет преимущественно французских же талантливых молодых исполнителей, чье живое выступление в студии без зрителей может состоять из одной или нескольких песен, иногда передача бывает полностью посвящена одному исполнителю, презентующему новый альбом. Musique Acoustic выходит в эфир раз в 1-2 недели. Ведущим передачи c 2006 года является ее создатель - популярный радио – и телеведущий - Sébastien Folin, получивший известность в 2005 году серией из 20 коротких программ для TF1 "Любовь в 20 лет".

Сегодня в студии французский певец и поэт Fabien Marsaud, больше известный под своим сценическим именем Grand Corps Malade, представит новый студийный альбом Funambule (2013). Его дебютный альбом Midi 20 (2006) стал обладателем сразу двух главных наград Victoires de la musique 2007: Альбом года, Исполнитель года. Fabien Marsaud в 2008 году стал кавалером Ордена искусства и литературы.

Треклист:
01. Grand Corps Malade, Leslie Bourdin – Te manquer
02. Grand Corps Malade – Le manège
03. Grand Corps Malade – J''ai mis des mots
04. Grand Corps Malade, Richard Bohringer – Course contre la honte
Передачи Musique Acoustic
Источник: запись со спутника (канал TV5MONDE).

Качество: DVB
Контейнер: MPEG-PS
Видео кодек: MPEG2
Аудио кодек: MP2
Видео: MPEG Video 2, 720x576@1024x576 (16:9), 25 fps, ~3836 kbps avg, ~0.370 bit/pixel
Аудио: 48 kHz, MPEG Audio 2, 2 ch, ~192.00 kbps avg
Полное имя : H:\My Torrents\[apreder]TV5MONDE_Musique_Acoustic\[apreder]TV5MONDE_Musique_Aqoustic(31.12.2013)DVB.mpgФормат : MPEG-PSРазмер файла : 758 МбайтПродолжительность : 25 м.Режим общего битрейта : ПеременныйОбщий поток : 4110 Кбит/сек

ВидеоИдентификатор : 224 (0xE0)Формат : MPEG VideoВерсия формата : Version 2Профиль формата : Main@MainПараметр BVOP формата : ДаПараметр матрицы формата : ВыборочнаяПараметр GOP формата : M=3, N=24Продолжительность : 25 м.Вид битрейта : ПеременныйБитрейт : 3836 Кбит/секШирина : 720 пикселейВысота : 576 пикселейСоотношение сторон : 16:9Частота кадров : 25,000 кадров/секСтандарт вещания : PALЦветовое пространство : YUVСубдискретизация насыщенности : 4:2:0Битовая глубина : 8 битМетод сжатия : С потерямиБит/(Пиксели*Кадры) : 0.370Временной код первого кадра : 00:00:00:00Оригинал временного кода : Group of pictures headerРазмер потока : 707 Мбайт (93%)

АудиоИдентификатор : 192 (0xC0)Формат : MPEG AudioВерсия формата : Version 1Профиль формата : Layer 2Продолжительность : 25 м.Вид битрейта : ПостоянныйБитрейт : 192 Кбит/секКаналы : 2 каналаЧастота : 48,0 КГцМетод сжатия : С потерямиРазмер потока : 35,4 Мбайт (5%)



Трекер:  [ 01-Янв-2014 22:38 ]

  

Скачать .torrent

Размер .torrent файла 15 KB


Размер: 758 MB
Хэш (hash) релиза: 00961e587fa61ac40775783a5894358b5334e403

Еще никто не оставлял запись к записи скачать торрент Grand Corps Malade, Richard Bohringer, Leslie Bourdin - Funambule - Musique Acoustic от 31.12.2013 - TV5MONDE . Будь первым!

!Обратная связь