Скачать через торрент музыку Винтаж Feat Kirill Clash - Play бесплатно без регистрации torrent

Если у вас наблюдаются проблемы со скриншотами, переходом по ссылками, скачиванием торрентов - проблемы в блокировщике рекламы AdBlock. #хорошегоДня!


Статистика раздачи
Размер:  77 MB   |    Зарегистрирован:  3 года 9 месяцев   |    .torrent скачан:  105 раз   |   
Раздают:  1  
   
Загрузка...
 
Автор Сообщение

Galfimbul

avatar Galfimbul


Винтаж Feat Kirill Clash - Play

Страна: Россия
Жанр: Pop
Продолжительность: 00:03:46
Год выпуска: 2014 г.
Описание: «Винтаж» — российская поп-группа, в состав которой входят певица Анна Плетнёва и певец, композитор и саунд-продюсер Алексей Романоф. Ранее в состав группы входили танцовщицы Мия и Светлана Иванова

Треклист: Винтаж Feat Kirill Clash - Play (Игра)

Доп. информация: Участники Анна Юрьевна Плетнёва, Алексей Романов

Источник: собственный рип

Качество: HDTVRip
Контейнер: AVI
Видео кодек: XviD
Аудио кодек: AC3
Видео: 720x400 (1.80:1), 23.976 fps, XviD build 73 ~2455 kbps avg, 0.35 bit/pixel
Аудио: 48 kHz, AC3 Dolby Digital, 2/0 (L,R) ch, ~384 kbps
Общее
Полное имя                               : C:\Users\Deadmauvlad\Desktop\Релизы На выкладку\Винтаж .feat.Kirill.Clash.Play.HDTVRip.Deadmauvlad.avi
Формат                                   : AVI
Формат/Информация                        : Audio Video Interleave
Размер файла                             : 77,0 Мбайт
Продолжительность                        : 3 м. 46 с.
Общий поток                              : 2849 Кбит/сек
Название фильма                          : Винтаж .feat.Kirill.Clash.Play.HDTVRip.Deadmauvlad
Режиссёр                                 : Deadmauvlad
Жанр                                     : Музыка 16+
Программа кодирования                    : VirtualDubMod 1.5.10.3 | www.virtualdub-fr.org || (build 2550/release)
Формат оригинала/Имя                     : Клип
Правообладатель                          : DeadmauvladTV

Видео
Идентификатор                            : 0
Формат                                   : MPEG-4 Visual
Профиль формата                          : Advanced Simple@L5
Параметр BVOP формата                    : 2
Параметр QPel формата                    : Нет
Параметр GMC формата                     : Без точки перехода
Параметр матрицы формата                 : Default (MPEG)
Идентификатор кодека                     : XVID
Идентификатор кодека/Подсказка           : XviD
Продолжительность                        : 3 м. 46 с.
Битрейт                                  : 2455 Кбит/сек
Ширина                                   : 720 пикселей
Высота                                   : 400 пикселей
Соотношение сторон                       : 16:9
Частота кадров                           : 23,976 кадра/сек
Цветовое пространство                    : YUV
Субдискретизация насыщенности            : 4:2:0
Битовая глубина                          : 8 бит
Тип развёртки                            : Прогрессивная
Метод сжатия                             : С потерями
Бит/(Пиксели*Кадры)                      : 0.356
Размер потока                            : 66,4 Мбайт (86%)
Библиотека кодирования                   : XviD 73

Аудио
Идентификатор                            : 1
Формат                                   : AC-3
Формат/Информация                        : Audio Coding 3
Расширение режима                        : CM (complete main)
Параметр Endianness формата              : Big
Идентификатор кодека                     : 2000
Продолжительность                        : 3 м. 46 с.
Вид битрейта                             : Постоянный
Битрейт                                  : 384 Кбит/сек
Каналы                                   : 2 канала
Расположение каналов                     : Front: L R
Частота                                  : 48,0 КГц
Битовая глубина                          : 16 бит
Метод сжатия                             : С потерями
Размер потока                            : 10,4 Мбайт (13%)
Выравнивание                             : Разделение по промежуткам
Продолжительность промежутка             : 42  мс. (1,00 видеокадр)
Время предзагрузки промежутка            : 500  мс.


Трекер:  [ 01-Янв-2014 21:48 ]

  

Скачать .torrent

Размер .torrent файла 12 KB


Размер: 77 MB
Хэш (hash) релиза: 1e47d2cfa8cb9d66617647457c34d9991e0533b6

Еще никто не оставлял запись к записи скачать торрент Винтаж Feat Kirill Clash - Play . Будь первым!

!Обратная связь