Скачать через торрент музыку бесплатно без регистрации torrent

Если у вас наблюдаются проблемы со скриншотами, переходом по ссылками, скачиванием торрентов - проблемы в блокировщике рекламы AdBlock. #хорошегоДня!


Статистика раздачи
Размер:  454 MB   |    Зарегистрирован:  3 года 7 месяцев   |    .torrent скачан:  138 раз   |   
Раздают:  1  
   
Загрузка...
 
Автор Сообщение

Galfimbul

avatar Galfimbul


СТАС
группа Стаса Намина Цветы 1972-1984гг.



Жанр: Rock
Носитель: CD
Страна-производитель диска: Россия
Год издания: 1996
Издатель (лейбл): Andreyevs Production
Номер по каталогу: НВ 45
Страна: СССР
Аудиокодек: FLAC (*.flac)
Тип рипа: image+.cue
Битрейт аудио: lossless
Продолжительность: 72 мин. 27 сек.
Источник (релизер): ski-line7
Наличие сканов в содержимом раздачи: фото
Треклист:
1. Звездочка
2. Есть глаза у цветов
3. Не надо
4. Колыбельная
5. Честно говоря
6. Старый рояль
7. Летний вечер
8. После дождя
9. Юрмала
10. Я найду
11. Пустой орех
12. Ностальгия по настоящему
13. Зуммер
14. Ноябрьский снег
15. Еще не все
16. Мы желаем счастья вам
17. Однажды ночью
Exact Audio Copy V1.0 beta 3 from 29. August 2011

Отчёт EAC об извлечении, выполненном 30. декабря 2013, 0:15

Группа Стаса Намина Цветы / Стас

Дисковод: Optiarc DVD RW AD-5240S Adapter: 2 ID: 1

Режим чтения : ДостоверностьИспользование точного потока : ДаОтключение кэша аудио : ДаИспользование указателей C2 : Нет

Коррекция смещения при чтении : 48Способность читать области Lead-in и Lead-out : НетЗаполнение пропущенных сэмплов тишиной : ДаУдаление блоков с тишиной в начале и конце : НетПри вычислениях CRC использовались нулевые сэмплы : ДаИнтерфейс : Встроенный Win32-интерфейс для Win NT/2000

Выходной формат : Внутренние WAV-операцииФормат сэмплов : 44.100 Гц; 16 бит; стерео

TOC извлечённого CD

Трек | Старт | Длительность | Начальный сектор | Конечный сектор --------------------------------------------------------------------- 1 | 0:00.25 | 5:16.63 | 25 | 23787 2 | 5:17.13 | 4:10.00 | 23788 | 42537 3 | 9:27.13 | 2:58.50 | 42538 | 55937 4 | 12:25.63 | 3:11.50 | 55938 | 70312 5 | 15:37.38 | 3:49.25 | 70313 | 87512 6 | 19:26.63 | 3:49.50 | 87513 | 104737 7 | 23:16.38 | 5:42.50 | 104738 | 130437 8 | 28:59.13 | 5:52.25 | 130438 | 156862 9 | 34:51.38 | 3:35.25 | 156863 | 173012 10 | 38:26.63 | 4:18.50 | 173013 | 192412 11 | 42:45.38 | 4:21.00 | 192413 | 211987 12 | 47:06.38 | 6:38.12 | 211988 | 241849 13 | 53:44.50 | 4:33.13 | 241850 | 262337 14 | 58:17.63 | 3:57.50 | 262338 | 280162 15 | 62:15.38 | 3:17.50 | 280163 | 294987 16 | 65:33.13 | 4:29.50 | 294988 | 315212 17 | 70:02.63 | 2:25.25 | 315213 | 326112

Характеристики диапазона извлечения и сообщения об ошибках

Выбранный диапазон

Имя файла D:\Группа Стаса Намина Цветы - Стас.wav

Пиковый уровень 100.0 % Скорость извлечения 4.5 X Качество диапазона 100.0 % CRC теста 8BE3DBA6 CRC копии 8BE3DBA6 Копирование... OK

Ошибок не произошло

Конец отчёта

==== Контрольная сумма отчёта D341077625180916B15BD790E556631C477838CBB36C544EB7E62EDE599352FB ====
REM GENRE RockREM DATE 1996REM DISCID 1810FC11REM COMMENT "ExactAudioCopy v1.0b3"PERFORMER "Группа Стаса Намина Цветы"TITLE "Стас"FILE "Группа Стаса Намина Цветы - Стас.flac" WAVE TRACK 01 AUDIO TITLE "Звездочка моя" PERFORMER "Группа Стаса Намина Цветы" INDEX 00 00:00:00 INDEX 01 00:00:25 TRACK 02 AUDIO TITLE "Есть глаза у цветов" PERFORMER "Группа Стаса Намина Цветы" INDEX 00 05:15:11 INDEX 01 05:17:13 TRACK 03 AUDIO TITLE "Не надо" PERFORMER "Группа Стаса Намина Цветы" INDEX 00 09:25:11 INDEX 01 09:27:13 TRACK 04 AUDIO TITLE "Колыбельная" PERFORMER "Группа Стаса Намина Цветы" INDEX 00 12:23:36 INDEX 01 12:25:63 TRACK 05 AUDIO TITLE "Честно говоря" PERFORMER "Группа Стаса Намина Цветы" INDEX 00 15:35:36 INDEX 01 15:37:38 TRACK 06 AUDIO TITLE "Старый рояль" PERFORMER "Группа Стаса Намина Цветы" INDEX 00 19:25:11 INDEX 01 19:26:63 TRACK 07 AUDIO TITLE "Летний вечер" PERFORMER "Группа Стаса Намина Цветы" INDEX 00 23:14:11 INDEX 01 23:16:38 TRACK 08 AUDIO TITLE "После дождя" PERFORMER "Группа Стаса Намина Цветы" INDEX 00 28:57:11 INDEX 01 28:59:13 TRACK 09 AUDIO TITLE "Юрмала" PERFORMER "Группа Стаса Намина Цветы" INDEX 00 34:49:11 INDEX 01 34:51:38 TRACK 10 AUDIO TITLE "Я найду" PERFORMER "Группа Стаса Намина Цветы" INDEX 00 38:25:11 INDEX 01 38:26:63 TRACK 11 AUDIO TITLE "Пустой орех" PERFORMER "Группа Стаса Намина Цветы" INDEX 00 42:45:11 INDEX 01 42:45:38 TRACK 12 AUDIO TITLE "Ностальгия по настоящему" PERFORMER "Группа Стаса Намина Цветы" INDEX 00 47:04:36 INDEX 01 47:06:38 TRACK 13 AUDIO TITLE "Зуммер" PERFORMER "Группа Стаса Намина Цветы" INDEX 00 53:42:36 INDEX 01 53:44:50 TRACK 14 AUDIO TITLE "Ноябрьский снег" PERFORMER "Группа Стаса Намина Цветы" INDEX 00 58:15:61 INDEX 01 58:17:63 TRACK 15 AUDIO TITLE "Еще не все" PERFORMER "Группа Стаса Намина Цветы" INDEX 00 62:13:36 INDEX 01 62:15:38 TRACK 16 AUDIO TITLE "Мы желаем счастья вам" PERFORMER "Группа Стаса Намина Цветы" INDEX 00 65:31:36 INDEX 01 65:33:13 TRACK 17 AUDIO TITLE "Однажды ночью" PERFORMER "Группа Стаса Намина Цветы" INDEX 00 70:00:36 INDEX 01 70:02:63
AUDIOCHECKER v2.0 beta (build 457) - by Dester - opdester@freemail.hu~~~~~~~~~~~~~~~~~~~~~~~~~~~~~~~~~~

Начато: понедельник, 30. 12. 2013. - 13:10.30Найдено файлов: 1

1 -===- F:\Музыка\Lossless\Группа Стаса Намина Цветы - Стас.wav Заключение: этот трек - CDDA с вероятностью 100%

Завершено: понедельник, 30. 12. 2013. - 13:15.36 (Время операции: 0:05.06)
Доп. информация:Этот сборник выпущен ограниченным тиражом , специально к вечеринке по поводу дня рождения Стаса как приятное воспоминание о его музыкальных увлечениях.Спасибо Олегу(ski-line7) и его друзьям за предоставленный рип.)))

Трекер:  [ 30-Дек-2013 15:35 ]

  

Скачать .torrent

Размер .torrent файла 19 KB


Размер: 454 MB
Хэш (hash) релиза: 2423b5ebcf618895b0c0e1f312c8515b7313e08c

Еще никто не оставлял запись к записи скачать торрент . Будь первым!

!Обратная связь