Скачать через торрент музыку Yuhki Kuramoto - Lake Mistt Blue - 1999, FLAC бесплатно без регистрации torrent

Если у вас наблюдаются проблемы со скриншотами, переходом по ссылками, скачиванием торрентов - проблемы в блокировщике рекламы AdBlock. #хорошегоДня!


Статистика раздачи
Размер:  179 MB   |    Зарегистрирован:  3 года 9 месяцев   |    .torrent скачан:  258 раз   |   
Раздают:  1  
   
Загрузка...
 
Автор Сообщение

Galfimbul

avatar Galfimbul


Yuhki Kuramoto - Lake Mistt Blue

Жанр: New Age, Neoclassical, Instrumental, Piano
Год издания: 1999
Аудиокодек: FLAC (*.flac)
Тип рипа: tracks+.cue
Битрейт аудио: lossless
Продолжительность: 00:45:00
Источник (релизер): internet
Наличие сканов в содержимом раздачи: нет
Треклист:
01. Prologue (Ripples)
02. Lake Louise I
03. Sonnet Of Fountain
04. Barcarolle
05. Lake Louise II
06. Vision
07. Look Down The Sea
08. EPISODE
09. Wind, Song, And
10. A Small Stream
11. Pastoral
12. Nocturne
13. Epilogue (Adieu)
14. A Scenery Of Treea
15. Waltz No.2
16. Lovingly
Exact Audio Copy V0.99 prebeta 4 from 23. January 2008

EAC extraction logfile from 8. May 2009, 22:53

Yuhki Kuramoto / Lake Misty Blue

Used drive : TSSTcorpCDDVDW SH-S223Q Adapter: 2 ID: 0

Read mode : SecureUtilize accurate stream : YesDefeat audio cache : YesMake use of C2 pointers : No

Read offset correction : 6Overread into Lead-In and Lead-Out : NoFill up missing offset samples with silence : YesDelete leading and trailing silent blocks : NoNull samples used in CRC calculations : YesUsed interface : Native Win32 interface for Win NT & 2000Gap handling : Appended to previous track

Used output format : User Defined EncoderSelected bitrate : 128 kBit/sQuality : HighAdd ID3 tag : NoCommand line compressor : C:\Program Files\Exact Audio Copy\Flac\flac.exeAdditional command line options : -8 -V -T "ARTIST=%a" -T "TITLE=%t" -T "ALBUM=%g" -T "DATE=%y" -T "TRACKNUMBER=%n" -T "GENRE=%m" -T "COMMENT=EAC FLAC -8" %s

TOC of the extracted CD

Track | Start | Length | Start sector | End sector --------------------------------------------------------- 1 | 0:00.00 | 1:22.10 | 0 | 6159 2 | 1:22.10 | 3:12.47 | 6160 | 20606 3 | 4:34.57 | 3:13.70 | 20607 | 35151 4 | 7:48.52 | 2:14.03 | 35152 | 45204 5 | 10:02.55 | 5:00.27 | 45205 | 67731 6 | 15:03.07 | 2:08.63 | 67732 | 77394 7 | 17:11.70 | 3:49.65 | 77395 | 94634 8 | 21:01.60 | 1:00.00 | 94635 | 99134 9 | 22:01.60 | 2:46.65 | 99135 | 111649 10 | 24:48.50 | 1:32.60 | 111650 | 118609 11 | 26:21.35 | 1:36.00 | 118610 | 125809 12 | 27:57.35 | 3:12.32 | 125810 | 140241 13 | 31:09.67 | 4:22.63 | 140242 | 159954 14 | 35:32.55 | 2:59.35 | 159955 | 173414 15 | 38:32.15 | 2:57.12 | 173415 | 186701 16 | 41:29.27 | 3:44.55 | 186702 | 203556

Track 1

Filename E:\Yuhki Kuramoto\Yuhki Kuramoto - Lake Mistt Blue(flac)\01 - Prologue (Ripples).wav

Pre-gap length 0:00:02.00

Peak level 80.1 % Track quality 100.0 % Test CRC 81B0FC13 Copy CRC 81B0FC13 Accurately ripped (confidence 2) [5CF1A6ED] Copy OK

Track 2

Filename E:\Yuhki Kuramoto\Yuhki Kuramoto - Lake Mistt Blue(flac)\02 - Lake Louise I.wav

Pre-gap length 0:00:00.01

Peak level 69.9 % Track quality 100.0 % Test CRC A09CAE61 Copy CRC A09CAE61 Accurately ripped (confidence 2) [13E70A00] Copy OK

Track 3

Filename E:\Yuhki Kuramoto\Yuhki Kuramoto - Lake Mistt Blue(flac)\03 - Sonnet Of Fountain.wav

Peak level 69.3 % Track quality 99.9 % Test CRC F536ABE0 Copy CRC F536ABE0 Accurately ripped (confidence 2) [1CB04F85] Copy OK

Track 4

Filename E:\Yuhki Kuramoto\Yuhki Kuramoto - Lake Mistt Blue(flac)\04 - Barcarolle.wav

Peak level 65.9 % Track quality 100.0 % Test CRC 9DA281F7 Copy CRC 9DA281F7 Accurately ripped (confidence 2) [8BB72711] Copy OK

Track 5

Filename E:\Yuhki Kuramoto\Yuhki Kuramoto - Lake Mistt Blue(flac)\05 - Lake Louise II.wav

Peak level 77.6 % Track quality 100.0 % Test CRC 51BA0CFF Copy CRC 51BA0CFF Accurately ripped (confidence 2) [054F716F] Copy OK

Track 6

Filename E:\Yuhki Kuramoto\Yuhki Kuramoto - Lake Mistt Blue(flac)\06 - Vision.wav

Peak level 40.9 % Track quality 99.9 % Test CRC 2A2CAF91 Copy CRC 2A2CAF91 Accurately ripped (confidence 2) [56820763] Copy OK

Track 7

Filename E:\Yuhki Kuramoto\Yuhki Kuramoto - Lake Mistt Blue(flac)\07 - Look Down The Sea.wav

Peak level 71.2 % Track quality 100.0 % Test CRC BF7D6A49 Copy CRC BF7D6A49 Accurately ripped (confidence 2) [FFBF1120] Copy OK

Track 8

Filename E:\Yuhki Kuramoto\Yuhki Kuramoto - Lake Mistt Blue(flac)\08 - Episode.wav

Peak level 53.4 % Track quality 100.0 % Test CRC 40F80C0F Copy CRC 40F80C0F Accurately ripped (confidence 2) [99DE275D] Copy OK

Track 9

Filename E:\Yuhki Kuramoto\Yuhki Kuramoto - Lake Mistt Blue(flac)\09 - Wind, Song, And....wav

Peak level 71.6 % Track quality 100.0 % Test CRC F24AD934 Copy CRC F24AD934 Accurately ripped (confidence 2) [2813C256] Copy OK

Track 10

Filename E:\Yuhki Kuramoto\Yuhki Kuramoto - Lake Mistt Blue(flac)\10 - A Small Stream.wav

Peak level 56.8 % Track quality 100.0 % Test CRC 6F4DD4A6 Copy CRC 6F4DD4A6 Accurately ripped (confidence 2) [BF2B5BBB] Copy OK

Track 11

Filename E:\Yuhki Kuramoto\Yuhki Kuramoto - Lake Mistt Blue(flac)\11 - Pastoral.wav

Peak level 76.9 % Track quality 100.0 % Test CRC EF00D0CC Copy CRC EF00D0CC Accurately ripped (confidence 2) [53120764] Copy OK

Track 12

Filename E:\Yuhki Kuramoto\Yuhki Kuramoto - Lake Mistt Blue(flac)\12 - Nocturne.wav

Peak level 59.2 % Track quality 100.0 % Test CRC 8E426842 Copy CRC 8E426842 Accurately ripped (confidence 2) [0ED796A5] Copy OK

Track 13

Filename E:\Yuhki Kuramoto\Yuhki Kuramoto - Lake Mistt Blue(flac)\13 - Epilogue (Adieu).wav

Peak level 74.0 % Track quality 100.0 % Test CRC C7508A1D Copy CRC C7508A1D Accurately ripped (confidence 2) [D817DA3E] Copy OK

Track 14

Filename E:\Yuhki Kuramoto\Yuhki Kuramoto - Lake Mistt Blue(flac)\14 - A Scenery Of Trees.wav

Peak level 64.7 % Track quality 100.0 % Test CRC 283FD35F Copy CRC 283FD35F Accurately ripped (confidence 2) [F458B620] Copy OK

Track 15

Filename E:\Yuhki Kuramoto\Yuhki Kuramoto - Lake Mistt Blue(flac)\15 - Waltz No.2.wav

Peak level 86.0 % Track quality 100.0 % Test CRC 797CEA4E Copy CRC 797CEA4E Accurately ripped (confidence 2) [D5790ECB] Copy OK

Track 16

Filename E:\Yuhki Kuramoto\Yuhki Kuramoto - Lake Mistt Blue(flac)\16 - Lovingly.wav

Peak level 65.5 % Track quality 100.0 % Test CRC 357A54AC Copy CRC 357A54AC Accurately ripped (confidence 2) [002A597D] Copy OK

All tracks accurately ripped

No errors occurred

End of status report
REM GENRE "New Age"REM DATE 1999REM DISCID C70A9A10REM COMMENT "ExactAudioCopy v0.99pb4"PERFORMER "Yuhki Kuramoto"TITLE "Lake Misty Blue"FILE "01 - Prologue (Ripples).wav" WAVE TRACK 01 AUDIO TITLE "Prologue (Ripples)" PERFORMER "Yuhki Kuramoto" INDEX 01 00:00:00 TRACK 02 AUDIO TITLE "Lake Louise I" PERFORMER "Yuhki Kuramoto" INDEX 00 01:22:09FILE "02 - Lake Louise I.wav" WAVE INDEX 01 00:00:00FILE "03 - Sonnet Of Fountain.wav" WAVE TRACK 03 AUDIO TITLE "Sonnet Of Fountain" PERFORMER "Yuhki Kuramoto" INDEX 01 00:00:00FILE "04 - Barcarolle.wav" WAVE TRACK 04 AUDIO TITLE "Barcarolle" PERFORMER "Yuhki Kuramoto" INDEX 01 00:00:00FILE "05 - Lake Louise II.wav" WAVE TRACK 05 AUDIO TITLE "Lake Louise II" PERFORMER "Yuhki Kuramoto" INDEX 01 00:00:00FILE "06 - Vision.wav" WAVE TRACK 06 AUDIO TITLE "Vision" PERFORMER "Yuhki Kuramoto" INDEX 01 00:00:00FILE "07 - Look Down The Sea.wav" WAVE TRACK 07 AUDIO TITLE "Look Down The Sea" PERFORMER "Yuhki Kuramoto" INDEX 01 00:00:00FILE "08 - Episode.wav" WAVE TRACK 08 AUDIO TITLE "Episode" PERFORMER "Yuhki Kuramoto" INDEX 01 00:00:00FILE "09 - Wind, Song, And....wav" WAVE TRACK 09 AUDIO TITLE "Wind, Song, And..." PERFORMER "Yuhki Kuramoto" INDEX 01 00:00:00FILE "10 - A Small Stream.wav" WAVE TRACK 10 AUDIO TITLE "A Small Stream" PERFORMER "Yuhki Kuramoto" INDEX 01 00:00:00FILE "11 - Pastoral.wav" WAVE TRACK 11 AUDIO TITLE "Pastoral" PERFORMER "Yuhki Kuramoto" INDEX 01 00:00:00FILE "12 - Nocturne.wav" WAVE TRACK 12 AUDIO TITLE "Nocturne" PERFORMER "Yuhki Kuramoto" INDEX 01 00:00:00FILE "13 - Epilogue (Adieu).wav" WAVE TRACK 13 AUDIO TITLE "Epilogue (Adieu)" PERFORMER "Yuhki Kuramoto" INDEX 01 00:00:00FILE "14 - A Scenery Of Trees.wav" WAVE TRACK 14 AUDIO TITLE "A Scenery Of Trees" PERFORMER "Yuhki Kuramoto" INDEX 01 00:00:00FILE "15 - Waltz No.2.wav" WAVE TRACK 15 AUDIO TITLE "Waltz No.2" PERFORMER "Yuhki Kuramoto" INDEX 01 00:00:00FILE "16 - Lovingly.wav" WAVE TRACK 16 AUDIO TITLE "Lovingly" PERFORMER "Yuhki Kuramoto" INDEX 01 00:00:00


Трекер:  [ 30-Дек-2013 12:14 ]

  

Скачать .torrent

Размер .torrent файла 15 KB


Размер: 179 MB
Хэш (hash) релиза: df2c1b92e48d9d9de711b415f3b4777a49632404

Еще никто не оставлял запись к записи скачать торрент Yuhki Kuramoto - Lake Mistt Blue - 1999, FLAC . Будь первым!

!Обратная связь