Скачать через торрент музыку бесплатно без регистрации torrent

Если у вас наблюдаются проблемы со скриншотами, переходом по ссылками, скачиванием торрентов - проблемы в блокировщике рекламы AdBlock. #хорошегоДня!


Статистика раздачи
Размер:  271 MB   |    Зарегистрирован:  3 года 9 месяцев   |    .torrent скачан:  241 раз   |   
Раздают:  1  
   
Загрузка...
 
Автор Сообщение

Galfimbul

avatar Galfimbul


Suzana Horvat / Na kraju dana

Жанр: Easy Listening; Smooth Jazz
Носитель: CD
Страна-производитель диска: Croatia
Год издания: 2005
Издатель (лейбл): Aquarius
Номер по каталогу: CD 72-05
Страна: Croatia
Аудиокодек: FLAC (*.flac)
Тип рипа: tracks+.cue
Битрейт аудио: lossless
Продолжительность: 00:52:13
Источник (релизер): personal
Наличие сканов в содержимом раздачи: да

Треклист:
01 Laž 5:07
02 Kreni prema suncu 4:14
03 More 4:24
04 U plavom 3:36
05 Jedino ljubav 4:41
06 Vjerujem 4:36
07 Kad sam s tobom 4:30
08 Na kraju dana 4:18
09 Ponekad 5:09
10 Dan i noć 4:40
11 Opraštam ti sve 3:38
12 Sanjam kako idem pored tebe - bonus track 3:20
Exact Audio Copy V1.0 beta 3 from 29. August 2011

EAC extraction logfile from 29. December 2013, 21:48

Suzana Horvat / Na kraju dana

Used drive : ATAPI DVD A DH20A4P Adapter: 2 ID: 0

Read mode : SecureUtilize accurate stream : YesDefeat audio cache : YesMake use of C2 pointers : No

Read offset correction : 6Overread into Lead-In and Lead-Out : NoFill up missing offset samples with silence : YesDelete leading and trailing silent blocks : NoNull samples used in CRC calculations : YesUsed interface : Native Win32 interface for Win NT & 2000Gap handling : Appended to previous track

Used output format : User Defined EncoderSelected bitrate : 896 kBit/sQuality : HighAdd ID3 tag : NoCommand line compressor : C:\Program Files\Exact Audio Copy\FLAC\FLAC.EXEAdditional command line options : -V -8 -T "Genre=%genre%" -T "Artist=%artist%" -T "Title=%title%" -T "Album=%albumtitle%" -T "Date=%year%" -T "Tracknumber=%tracknr%" -T "Comment=%comment%" %source%

TOC of the extracted CD

Track | Start | Length | Start sector | End sector --------------------------------------------------------- 1 | 0:00.00 | 5:07.43 | 0 | 23067 2 | 5:07.43 | 4:14.53 | 23068 | 42170 3 | 9:22.21 | 4:24.39 | 42171 | 62009 4 | 13:46.60 | 3:36.03 | 62010 | 78212 5 | 17:22.63 | 4:41.16 | 78213 | 99303 6 | 22:04.04 | 4:36.45 | 99304 | 120048 7 | 26:40.49 | 4:30.17 | 120049 | 140315 8 | 31:10.66 | 4:18.61 | 140316 | 159726 9 | 35:29.52 | 5:09.41 | 159727 | 182942 10 | 40:39.18 | 4:40.36 | 182943 | 203978 11 | 45:19.54 | 3:38.66 | 203979 | 220394

Track 1

Filename D:\Music\Jazz\Suzana Horvat - Na kraju dana\01 Laz.wav

Pre-gap length 0:00:02.00

Peak level 96.5 % Extraction speed 2.1 X Track quality 100.0 % Test CRC FABFD6EA Copy CRC FABFD6EA Track not present in AccurateRip database Copy OK

Track 2

Filename D:\Music\Jazz\Suzana Horvat - Na kraju dana\02 Kreni prema suncu.wav

Peak level 96.5 % Extraction speed 2.3 X Track quality 100.0 % Test CRC 1A5DC0D5 Copy CRC 1A5DC0D5 Track not present in AccurateRip database Copy OK

Track 3

Filename D:\Music\Jazz\Suzana Horvat - Na kraju dana\03 More.wav

Peak level 96.6 % Extraction speed 2.5 X Track quality 100.0 % Test CRC 0B9C4F06 Copy CRC 0B9C4F06 Track not present in AccurateRip database Copy OK

Track 4

Filename D:\Music\Jazz\Suzana Horvat - Na kraju dana\04 U plavom.wav

Peak level 96.5 % Extraction speed 2.6 X Track quality 100.0 % Test CRC 30D6DA46 Copy CRC 30D6DA46 Track not present in AccurateRip database Copy OK

Track 5

Filename D:\Music\Jazz\Suzana Horvat - Na kraju dana\05 Jedino ljubav.wav

Peak level 96.6 % Extraction speed 2.3 X Track quality 99.9 % Test CRC 7A0D1FD7 Copy CRC 7A0D1FD7 Track not present in AccurateRip database Copy OK

Track 6

Filename D:\Music\Jazz\Suzana Horvat - Na kraju dana\06 Vjerujem.wav

Peak level 96.6 % Extraction speed 3.0 X Track quality 100.0 % Test CRC 99C011B4 Copy CRC 99C011B4 Track not present in AccurateRip database Copy OK

Track 7

Filename D:\Music\Jazz\Suzana Horvat - Na kraju dana\07 Kad sam s tobom.wav

Peak level 96.6 % Extraction speed 2.5 X Track quality 99.9 % Test CRC 170EE6AF Copy CRC 170EE6AF Track not present in AccurateRip database Copy OK

Track 8

Filename D:\Music\Jazz\Suzana Horvat - Na kraju dana\08 Na kraju dana.wav

Peak level 96.5 % Extraction speed 3.2 X Track quality 100.0 % Test CRC 4AA4C647 Copy CRC 4AA4C647 Track not present in AccurateRip database Copy OK

Track 9

Filename D:\Music\Jazz\Suzana Horvat - Na kraju dana\09 Ponekad.wav

Peak level 96.5 % Extraction speed 3.4 X Track quality 100.0 % Test CRC E3A89C55 Copy CRC E3A89C55 Track not present in AccurateRip database Copy OK

Track 10

Filename D:\Music\Jazz\Suzana Horvat - Na kraju dana\10 Dan i noc.wav

Peak level 96.6 % Extraction speed 3.5 X Track quality 100.0 % Test CRC 4EECCD19 Copy CRC 4EECCD19 Track not present in AccurateRip database Copy OK

Track 11

Filename D:\Music\Jazz\Suzana Horvat - Na kraju dana\11 Oprastam ti sve.wav

Peak level 96.6 % Extraction speed 3.6 X Track quality 100.0 % Test CRC 3C22B787 Copy CRC 3C22B787 Track not present in AccurateRip database Copy OK

None of the tracks are present in the AccurateRip database

No errors occurred

End of status report

==== Log checksum E836FEF48797723055B31D5804AE85E2A2C6FB46CD103416D2B25F0E2FEC87F4 ====
REM GENRE "Easy Listening"REM DATE 2005REM DISCID 7D0B7A0BREM COMMENT "ExactAudioCopy v1.0b3"PERFORMER "Suzana Horvat"TITLE "Na kraju dana"FILE "01 Laz.flac" WAVE TRACK 01 AUDIO TITLE "Laz" PERFORMER "Suzana Horvat" ISRC 000000000000 INDEX 01 00:00:00FILE "02 Kreni prema suncu.flac" WAVE TRACK 02 AUDIO TITLE "Kreni prema suncu" PERFORMER "Suzana Horvat" ISRC 000000000000 INDEX 01 00:00:00FILE "03 More.flac" WAVE TRACK 03 AUDIO TITLE "More" PERFORMER "Suzana Horvat" ISRC 000000000000 INDEX 01 00:00:00FILE "04 U plavom.flac" WAVE TRACK 04 AUDIO TITLE "U plavom" PERFORMER "Suzana Horvat" ISRC 000000000000 INDEX 01 00:00:00FILE "05 Jedino ljubav.flac" WAVE TRACK 05 AUDIO TITLE "Jedino ljubav" PERFORMER "Suzana Horvat" ISRC 000000000000 INDEX 01 00:00:00FILE "06 Vjerujem.flac" WAVE TRACK 06 AUDIO TITLE "Vjerujem" PERFORMER "Suzana Horvat" ISRC 000000000000 INDEX 01 00:00:00FILE "07 Kad sam s tobom.flac" WAVE TRACK 07 AUDIO TITLE "Kad sam s tobom" PERFORMER "Suzana Horvat" ISRC 000000000000 INDEX 01 00:00:00FILE "08 Na kraju dana.flac" WAVE TRACK 08 AUDIO TITLE "Na kraju dana" PERFORMER "Suzana Horvat" ISRC 000000000000 INDEX 01 00:00:00FILE "09 Ponekad.flac" WAVE TRACK 09 AUDIO TITLE "Ponekad" PERFORMER "Suzana Horvat" ISRC TOCRW2012345 INDEX 01 00:00:00FILE "10 Dan i noc.flac" WAVE TRACK 10 AUDIO TITLE "Dan i noc" PERFORMER "Suzana Horvat" ISRC 000000000000 INDEX 01 00:00:00FILE "11 Oprastam ti sve.flac" WAVE TRACK 11 AUDIO TITLE "Oprastam ti sve" PERFORMER "Suzana Horvat" ISRC 000000000000 INDEX 01 00:00:00
Доп. информация: http://www.youtube.com/watch?v=q10d-4Bx6Ds
http://www.youtube.com/watch?v=6yHCrIv1eW0
Suzana Horvat is Croatian jazz singer. She is born December 15th 1976 in Zagreb. She started her music carrier when she was eight playing a piano at the begginings.

In 2005 she published her debut album “Na kraju dana” and in 2007. she published her second album “Mjesto koje sanjam”!
01) Guitar – Miljenko Dimitrijević; Guitar, Bass, Drums – Fadil Abdulov; Piano, Vocals – Suzana Horvat
02) Acoustic Guitar, Percussion [Synthesized] – Miljenko Dimitrijević; Guitar, Bass – Fadil Abdulov; Vocals - Suzana Horvat
03) Guitar, Bass, Drums – Fadil Abdulov; Organ [Hammond] – Miljenko Dimitrijević; Piano, Vocals – Suzana Horvat; Saxophone [Alto] – Ivan Kovačić (2), Tomislav Žužak
04) Guitar – Miljenko Dimitrijević; Guitar, Bass, Drums – Fadil Abdulov; Piano, Vocals – Suzana Horvat
05) Acoustic Guitar, Bass, Drums – Fadil Abdulov; Harmonica – Davorin Kaurić; Organ [Hammond] – Miljenko Dimitrijević; Piano, Vocals – Suzana Horvat
06) Acoustic Guitar, Electric Piano – Miljenko Dimitrijević; Bass, Drums – Fadil Abdulov; Harmonica – Davorin Kaurić; Piano, Vocals – Suzana Horvat
07) Acoustic Guitar – Ivo Barač; Bass, Drums – Fadil Abdulov; Piano, Vocals – Suzana Horvat
08) Piano, Vocals – Suzana Horvat
09) Drums – Domagoj Krpelnik; Guitar, Bass, Music By – Miljenko Dimitrijević; Saxophone [Alto] – Tomislav Žužak; Vocals - Suzana Horvat
10) Guitar, Bass, Drums – Fadil Abdulov; Piano, Vocals – Suzana Horvat
11) Bass – Miljenko Dimitrijević; Piano, Vocals – Suzana Horvat; Saxophone [Tenor] – Ivan Kovačić (2)


Трекер:  [ 30-Дек-2013 11:31 ]

  

Скачать .torrent

Размер .torrent файла 13 KB


Размер: 271 MB
Хэш (hash) релиза: 8bfa02c6b1e2b7c586e80dfffd2af52b99748fe7

Еще никто не оставлял запись к записи скачать торрент . Будь первым!

!Обратная связь