Скачать через торрент музыку бесплатно без регистрации torrent

Если у вас наблюдаются проблемы со скриншотами, переходом по ссылками, скачиванием торрентов - проблемы в блокировщике рекламы AdBlock. #хорошегоДня!


Статистика раздачи
Размер:  392 MB   |    Зарегистрирован:  3 года 9 месяцев   |    .torrent скачан:  80 раз   |   
Раздают:  1  
   
Загрузка...
 
Автор Сообщение

Galfimbul

avatar Galfimbul


Three Baritone Saxophone Band featuring Ronnie Cuber, Nick Brignola & Gary Smulyan - Plays Mulligan
Жанр: Neo-Bop, Straight-Ahead Jazz, Mainstream Jazz
Носитель: CD
Год издания: 1998
Издатель (лейбл): Dreyfus Records (France)
Номер по каталогу: FDM -36588 2
Страна: USA
Аудиокодек: FLAC (*.flac)
Тип рипа: image+.cue
Битрейт аудио: lossless
Продолжительность: 01:01:03
Источник (релизер): eMule
Наличие сканов в содержимом раздачи: нет

Ronnie Cuber - baritone saxophone
Nick Brignola - baritone saxophone
Gary Smulyan - baritone saxophone
Andy McKee - bass
Joe Farnsworth - drums

01. Line For Lyons [04:22]
02. Blue Port [05:34]
03. I Want To Live [04:59]
04. Walkin'' Shoes [04:51]
05. Elevation [03:54]
06. Black Nightgown [05:13]
07. Bernie''s Tune [05:39]
08. Festive Minor [04:25]
09. Theme For Jobim [04:09]
10. Five Brothers [05:40]
11. Lonesome Boulevard [04:28]
12. Waltz For Geraldus [07:46]

Recorded at Sorcerer Sound, New York, New York on May 21, 1997.

Exact Audio Copy V0.99 prebeta 5 from 4. May 2009

EAC extraction logfile from 16. February 2011, 11:41

Three Baritone Saxophone Band [Ronnie Cuber/Nick Brignola/Gary Smulyan] / Plays Mulligan

Used drive : PIONEER DVD-RW DVR-215D Adapter: 2 ID: 0

Read mode : SecureUtilize accurate stream : YesDefeat audio cache : YesMake use of C2 pointers : No

Read offset correction : 48Overread into Lead-In and Lead-Out : NoFill up missing offset samples with silence : YesDelete leading and trailing silent blocks : NoNull samples used in CRC calculations : YesUsed interface : Installed external ASPI interface

Used output format : Internal WAV RoutinesSample format : 44.100 Hz; 16 Bit; Stereo

TOC of the extracted CD

Track | Start | Length | Start sector | End sector --------------------------------------------------------- 1 | 0:00.00 | 4:22.47 | 0 | 19696 2 | 4:22.47 | 5:34.38 | 19697 | 44784 3 | 9:57.10 | 4:59.72 | 44785 | 67281 4 | 14:57.07 | 4:51.15 | 67282 | 89121 5 | 19:48.22 | 3:54.38 | 89122 | 106709 6 | 23:42.60 | 5:13.00 | 106710 | 130184 7 | 28:55.60 | 5:39.00 | 130185 | 155609 8 | 34:34.60 | 4:25.12 | 155610 | 175496 9 | 38:59.72 | 4:09.00 | 175497 | 194171 10 | 43:08.72 | 5:40.10 | 194172 | 219681 11 | 48:49.07 | 4:28.25 | 219682 | 239806 12 | 53:17.32 | 7:46.35 | 239807 | 274791

Range status and errors

Selected range

Filename M:\Documents and Settings\Administrator\My Documents\My Music\Three Baritone Saxophone Band [Ronnie Cuber Nick Brignola Gary Smulyan] - Plays Mulligan.wav

Peak level 99.4 % Range quality 100.0 % Copy CRC 249271A6 Copy OK

No errors occurred

AccurateRip summary

Track 1 not present in databaseTrack 2 not present in databaseTrack 3 not present in databaseTrack 4 not present in databaseTrack 5 not present in databaseTrack 6 not present in databaseTrack 7 not present in databaseTrack 8 not present in databaseTrack 9 not present in databaseTrack 10 not present in databaseTrack 11 not present in databaseTrack 12 not present in database

None of the tracks are present in the AccurateRip database

End of status report
REM GENRE JazzREM DATE 1997REM DISCID B50E4F0CREM COMMENT "ExactAudioCopy v0.99pb5"CATALOG 0000000000000PERFORMER "Three Baritone Saxophone Band [Ronnie Cuber/Nick Brignola/Gary Smulyan]"TITLE "Plays Mulligan"FILE "Three Baritone Saxophone Band [Ronnie Cuber Nick Brignola Gary Smulyan] - Plays Mulligan.flac" WAVE TRACK 01 AUDIO TITLE "Line For Lyons" PERFORMER "Three Baritone Saxophone Band [Ronnie Cuber/Nick Brignola/Gary Smulyan]" ISRC FR14F9700110 INDEX 01 00:00:00 TRACK 02 AUDIO TITLE "Blue Port" PERFORMER "Three Baritone Saxophone Band [Ronnie Cuber/Nick Brignola/Gary Smulyan]" ISRC FR14F9700120 INDEX 01 04:22:47 TRACK 03 AUDIO TITLE "I Want To Live" PERFORMER "Three Baritone Saxophone Band [Ronnie Cuber/Nick Brignola/Gary Smulyan]" ISRC FR14F9700130 INDEX 01 09:57:10 TRACK 04 AUDIO TITLE "Walkin'' Shoes" PERFORMER "Three Baritone Saxophone Band [Ronnie Cuber/Nick Brignola/Gary Smulyan]" ISRC FR14F9700140 INDEX 01 14:57:07 TRACK 05 AUDIO TITLE "Elevation" PERFORMER "Three Baritone Saxophone Band [Ronnie Cuber/Nick Brignola/Gary Smulyan]" ISRC FR14F9700150 INDEX 01 19:48:22 TRACK 06 AUDIO TITLE "Black Nightgown" PERFORMER "Three Baritone Saxophone Band [Ronnie Cuber/Nick Brignola/Gary Smulyan]" ISRC FR14F9700160 INDEX 01 23:42:60 TRACK 07 AUDIO TITLE "Bernie''s Tune" PERFORMER "Three Baritone Saxophone Band [Ronnie Cuber/Nick Brignola/Gary Smulyan]" ISRC FR14F9700170 INDEX 01 28:55:60 TRACK 08 AUDIO TITLE "Festive Minor" PERFORMER "Three Baritone Saxophone Band [Ronnie Cuber/Nick Brignola/Gary Smulyan]" ISRC FR14F9700180 INDEX 01 34:34:60 TRACK 09 AUDIO TITLE "Theme For Jobim" PERFORMER "Three Baritone Saxophone Band [Ronnie Cuber/Nick Brignola/Gary Smulyan]" ISRC FR14F9700190 INDEX 01 38:59:72 TRACK 10 AUDIO TITLE "Five Brothers" PERFORMER "Three Baritone Saxophone Band [Ronnie Cuber/Nick Brignola/Gary Smulyan]" ISRC FR14F9700200 INDEX 01 43:08:72 TRACK 11 AUDIO TITLE "Lonesome Boulevard" PERFORMER "Three Baritone Saxophone Band [Ronnie Cuber/Nick Brignola/Gary Smulyan]" ISRC FR14F9700210 INDEX 01 48:49:07 TRACK 12 AUDIO TITLE "Waltz For Geraldus" PERFORMER "Three Baritone Saxophone Band [Ronnie Cuber/Nick Brignola/Gary Smulyan]" ISRC FR14F9700220 INDEX 01 53:17:32


Трекер:  [ 30-Дек-2013 11:27 ]

  

Скачать .torrent

Размер .torrent файла 16 KB


Размер: 392 MB
Хэш (hash) релиза: 3b88fdd5aae750fabc211c5f64f92d044b9fdf06

Еще никто не оставлял запись к записи скачать торрент . Будь первым!

!Обратная связь