Скачать через торрент музыку бесплатно без регистрации torrent

Если у вас наблюдаются проблемы со скриншотами, переходом по ссылками, скачиванием торрентов - проблемы в блокировщике рекламы AdBlock. #хорошегоДня!


Статистика раздачи
Размер:  358 MB   |    Зарегистрирован:  3 года 9 месяцев   |    .torrent скачан:  77 раз   |   
Раздают:  1  
   
Загрузка...
 
Автор Сообщение

Galfimbul

avatar Galfimbul


♦ Peter Rjanitsyn''s Siberian Acoustic Band (Пётр Ржаницин и его Сибирский акустический ансамбль) - Emotions (Эмоции) ♦

Жанр: Jazz Fusion
Носитель: CD
Страна-производитель диска: Russia
Год издания: 2002
Издатель (лейбл): Ermatell Records
Номер по каталогу: JCD 047
Аудиокодек: FLAC (*.flac)
Тип рипа: tracks+.cue
Битрейт аудио: lossless
Продолжительность: 00:54:46
Источник (релизер): Рип с диска.
Наличие сканов в содержимом раздачи: да

Треклист:

01. Sunny Feast [05:32]
02. Imprefest [04:28]
03. Dedicated To the Beatles [06:35]
04. Fast Train No 26 [02:38]
05. Nocturne [06:45]
06. Cavatina [03:23]
07. Wind Name [04:26]
08. Siberian Samba [03:40]
09. Cock''n Bull Story [04:57]
10. Emotions [05:23]
11. Siberian Fair [04:53]
12. Signe [02:01]
Exact Audio Copy V1.0 beta 3 from 29. August 2011

EAC extraction logfile from 19. December 2013, 13:16

Peter Rjanitsyn''s Siberian Acoustic Band / Emotions

Used drive : Optiarc DVD RW AD-5200A Adapter: 0 ID: 0

Read mode : SecureUtilize accurate stream : YesDefeat audio cache : YesMake use of C2 pointers : No

Read offset correction : 48Overread into Lead-In and Lead-Out : NoFill up missing offset samples with silence : YesDelete leading and trailing silent blocks : NoNull samples used in CRC calculations : YesUsed interface : Native Win32 interface for Win NT & 2000Gap handling : Appended to previous track

Used output format : User Defined EncoderSelected bitrate : 128 kBit/sQuality : HighAdd ID3 tag : NoCommand line compressor : C:\Program Files\Exact Audio Copy\Flac\flac.exeAdditional command line options : -V -8 -T "Genre=%genre%" -T "Artist=%artist%" -T "Title=%title%" -T "Album=%albumtitle%" -T "Date=%year%" -T "Tracknumber=%tracknr%" -T "Comment=%comment%" %source%

TOC of the extracted CD

Track | Start | Length | Start sector | End sector --------------------------------------------------------- 1 | 0:00.00 | 5:32.35 | 0 | 24934 2 | 5:32.35 | 4:28.23 | 24935 | 45057 3 | 10:00.58 | 6:35.27 | 45058 | 74709 4 | 16:36.10 | 2:38.03 | 74710 | 86562 5 | 19:14.13 | 6:45.22 | 86563 | 116959 6 | 25:59.35 | 3:23.65 | 116960 | 132249 7 | 29:23.25 | 4:26.58 | 132250 | 152257 8 | 33:50.08 | 3:40.45 | 152258 | 168802 9 | 37:30.53 | 4:57.45 | 168803 | 191122 10 | 42:28.23 | 5:23.20 | 191123 | 215367 11 | 47:51.43 | 4:53.60 | 215368 | 237402 12 | 52:45.28 | 2:01.10 | 237403 | 246487

Track 1

Filename F:\2002.Peter Rjanitsyn''s Siberian Acoustic Band - Emotions\01. Sunny Feast.wav

Pre-gap length 0:00:02.00

Peak level 100.0 % Extraction speed 2.4 X Track quality 100.0 % Test CRC BCEC12A4 Copy CRC BCEC12A4 Accurately ripped (confidence 1) [AA2DC94F] (AR v2) Copy OK

Track 2

Filename F:\2002.Peter Rjanitsyn''s Siberian Acoustic Band - Emotions\02. Imprefest.wav

Pre-gap length 0:00:02.00

Peak level 100.0 % Extraction speed 2.6 X Track quality 100.0 % Test CRC 3372DFD9 Copy CRC 3372DFD9 Track not present in AccurateRip database Copy OK

Track 3

Filename F:\2002.Peter Rjanitsyn''s Siberian Acoustic Band - Emotions\03. Dedicated To the Beatles.wav

Pre-gap length 0:00:02.00

Peak level 100.0 % Extraction speed 3.0 X Track quality 100.0 % Test CRC 2679BD6D Copy CRC 2679BD6D Track not present in AccurateRip database Copy OK

Track 4

Filename F:\2002.Peter Rjanitsyn''s Siberian Acoustic Band - Emotions\04. Fast Train No 26.wav

Pre-gap length 0:00:02.00

Peak level 99.3 % Extraction speed 2.4 X Track quality 99.9 % Test CRC 9B0C42F6 Copy CRC 9B0C42F6 Track not present in AccurateRip database Copy OK

Track 5

Filename F:\2002.Peter Rjanitsyn''s Siberian Acoustic Band - Emotions\05. Nocturne.wav

Pre-gap length 0:00:02.00

Peak level 100.0 % Extraction speed 3.5 X Track quality 100.0 % Test CRC 71F760F6 Copy CRC 71F760F6 Track not present in AccurateRip database Copy OK

Track 6

Filename F:\2002.Peter Rjanitsyn''s Siberian Acoustic Band - Emotions\06. Cavatina.wav

Pre-gap length 0:00:02.00

Peak level 100.0 % Extraction speed 2.9 X Track quality 99.9 % Test CRC DEDE2DB8 Copy CRC DEDE2DB8 Track not present in AccurateRip database Copy OK

Track 7

Filename F:\2002.Peter Rjanitsyn''s Siberian Acoustic Band - Emotions\07. Wind Name.wav

Pre-gap length 0:00:02.00

Peak level 71.5 % Extraction speed 3.5 X Track quality 100.0 % Test CRC FB1F6265 Copy CRC FB1F6265 Track not present in AccurateRip database Copy OK

Track 8

Filename F:\2002.Peter Rjanitsyn''s Siberian Acoustic Band - Emotions\08. Siberian Samba.wav

Pre-gap length 0:00:02.00

Peak level 100.0 % Extraction speed 3.5 X Track quality 100.0 % Test CRC 4B8D630F Copy CRC 4B8D630F Track not present in AccurateRip database Copy OK

Track 9

Filename F:\2002.Peter Rjanitsyn''s Siberian Acoustic Band - Emotions\09. Cock''n Bull Story.wav

Pre-gap length 0:00:02.00

Peak level 72.6 % Extraction speed 3.7 X Track quality 100.0 % Test CRC 6443C2DB Copy CRC 6443C2DB Track not present in AccurateRip database Copy OK

Track 10

Filename F:\2002.Peter Rjanitsyn''s Siberian Acoustic Band - Emotions\10. Emotions.wav

Pre-gap length 0:00:02.00

Peak level 79.5 % Extraction speed 3.7 X Track quality 100.0 % Test CRC 96734B2F Copy CRC 96734B2F Track not present in AccurateRip database Copy OK

Track 11

Filename F:\2002.Peter Rjanitsyn''s Siberian Acoustic Band - Emotions\11. Siberian Fair.wav

Pre-gap length 0:00:02.00

Peak level 79.0 % Extraction speed 3.4 X Track quality 99.9 % Test CRC 16CFFDE5 Copy CRC 16CFFDE5 Track not present in AccurateRip database Copy OK

Track 12

Filename F:\2002.Peter Rjanitsyn''s Siberian Acoustic Band - Emotions\12. Signe.wav

Pre-gap length 0:00:02.00

Peak level 72.2 % Extraction speed 3.2 X Track quality 100.0 % Test CRC 75467463 Copy CRC 75467463 Track not present in AccurateRip database Copy OK

1 трек(и) скопированы точно11 трек(и) не содержатся в базе AccurateRip

Some tracks could not be verified as accurate

No errors occurred

End of status report

==== Log checksum 5F8F154948BEA972017BBA8A923AA6E441A3B0B1A2A91E5CA09D231CAB79AE3C ====
REM GENRE JazzREM DATE 2002REM DISCID 9E0CD60CREM COMMENT "ExactAudioCopy v1.0b3"PERFORMER "Peter Rjanitsyn''s Siberian Acoustic Band"TITLE "Emotions"FILE "01. Sunny Feast.wav" WAVE TRACK 01 AUDIO TITLE "Sunny Feast" PERFORMER "Peter Rjanitsyn''s Siberian Acoustic Band" INDEX 01 00:00:00 TRACK 02 AUDIO TITLE "Imprefest" PERFORMER "Peter Rjanitsyn''s Siberian Acoustic Band" INDEX 00 05:30:35FILE "02. Imprefest.wav" WAVE INDEX 01 00:00:00 TRACK 03 AUDIO TITLE "Dedicated To the Beatles" PERFORMER "Peter Rjanitsyn''s Siberian Acoustic Band" INDEX 00 04:26:23FILE "03. Dedicated To the Beatles.wav" WAVE INDEX 01 00:00:00 TRACK 04 AUDIO TITLE "Fast Train No 26" PERFORMER "Peter Rjanitsyn''s Siberian Acoustic Band" INDEX 00 06:33:27FILE "04. Fast Train No 26.wav" WAVE INDEX 01 00:00:00 TRACK 05 AUDIO TITLE "Nocturne" PERFORMER "Peter Rjanitsyn''s Siberian Acoustic Band" INDEX 00 02:36:03FILE "05. Nocturne.wav" WAVE INDEX 01 00:00:00 TRACK 06 AUDIO TITLE "Cavatina" PERFORMER "Peter Rjanitsyn''s Siberian Acoustic Band" INDEX 00 06:43:22FILE "06. Cavatina.wav" WAVE INDEX 01 00:00:00 TRACK 07 AUDIO TITLE "Wind Name" PERFORMER "Peter Rjanitsyn''s Siberian Acoustic Band" INDEX 00 03:21:65FILE "07. Wind Name.wav" WAVE INDEX 01 00:00:00 TRACK 08 AUDIO TITLE "Siberian Samba" PERFORMER "Peter Rjanitsyn''s Siberian Acoustic Band" INDEX 00 04:24:58FILE "08. Siberian Samba.wav" WAVE INDEX 01 00:00:00 TRACK 09 AUDIO TITLE "Cock''n Bull Story" PERFORMER "Peter Rjanitsyn''s Siberian Acoustic Band" INDEX 00 03:38:45FILE "09. Cock''n Bull Story.wav" WAVE INDEX 01 00:00:00 TRACK 10 AUDIO TITLE "Emotions" PERFORMER "Peter Rjanitsyn''s Siberian Acoustic Band" INDEX 00 04:55:45FILE "10. Emotions.wav" WAVE INDEX 01 00:00:00 TRACK 11 AUDIO TITLE "Siberian Fair" PERFORMER "Peter Rjanitsyn''s Siberian Acoustic Band" INDEX 00 05:21:20FILE "11. Siberian Fair.wav" WAVE INDEX 01 00:00:00 TRACK 12 AUDIO TITLE "Signe" PERFORMER "Peter Rjanitsyn''s Siberian Acoustic Band" INDEX 00 04:51:60FILE "12. Signe.wav" WAVE INDEX 01 00:00:00
В 1988 году, Пётр Ржаницын и саксофонист Борис Балахнин организовали первый в Сибири Дикси-Бэнд. 1991 год — первые поездки состава за рубеж, участие в джазовых фестивалях Голландии и Германии. После этого Дикси-Бэнд получает много предложений о работе, участвует в крупнейших европейских фестивалях в Германии, Голландии, Финляндии. Состав работает в Эстонии, Швеции, Китае и других странах, записывается на студиях России и за рубежом. Но творческая натура ищет новые рамки, формы, ставит новые задачи, и в 1995 году Пётр создаёт первый в Сибири концертный коллектив "Сибирский Джазовый Проект". Ансамбль под его руководством в короткое время становится одним из ведущих творческих коллективов не только в Сибири, но завоёвывает многочисленных почитателей в разных концах России. В 1996 году "Проект" был приглашён на 26-й международный фестиваль в Дрезден, где его высокое исполнительское мастерство было отмечено прессой, как значительный вклад в развитие нового джазового направления. Яркое выступление коллектива на фестивале поставило ансамбль на один уровень с европейскими музыкантами. В 1996 году Пётр выпускает первый сольный компакт-диск "Unit 7" с известным американским трубачом Тэдом Кёрсоном. В 1997 году — следующий диск "Far Away" с американским композитором и саксофонистом Анатолием Герасимовым. В 1998 году Пётр Васильевич объединил вокруг себя молодых музыкантов, создав интереснейший акустический ансамбль, где является аранжировщиком, композитором и автором стихов. Его новаторство и интересное соединение инструментов сразу заинтересовало специалистов. Они считают, что, практически, аналогов подобной музыки в России нет. Совсем недавно вышел диск этого коллектива, который называется "Эмоции".
Пётр Ржаницын - акустическая бас-гитара
Александр Соколкин - акустическая гитара
Михаил Савичев - акустическая гитара
Николай Шестаков - гобой
Дмитрий Ржаницын - перкуссионные инструменты
Михаил Беляев - ударные


Трекер:  [ 30-Дек-2013 11:27 ]

  

Скачать .torrent

Размер .torrent файла 15 KB


Размер: 358 MB
Хэш (hash) релиза: fecc43ef14986200d5e15335716088de43a9f801

Еще никто не оставлял запись к записи скачать торрент . Будь первым!

!Обратная связь