Скачать через торрент музыку Jean-Marie Machado & Danzas invitent Andre Minvielle - Jazz Sous les Pommiers 2013 бесплатно без регистрации torrent

Если у вас наблюдаются проблемы со скриншотами, переходом по ссылками, скачиванием торрентов - проблемы в блокировщике рекламы AdBlock. #хорошегоДня!


Статистика раздачи
Размер:  3.96 GB   |    Зарегистрирован:  3 года 7 месяцев   |    .torrent скачан:  46 раз   |   
Раздают:  1  
   
Загрузка...
 
Автор Сообщение

Galfimbul

avatar Galfimbul


Jean-Marie Machado & Danzas invitent Andre Minvielle - Jazz Sous les Pommiers 2013

Жанр: shanson jazz
Продолжительность: 01:00:18
Год выпуска: 2013

Описание:
Jean-Marie Machado & Danzas invitent Andre Minvielle - Jazz Sous les Pommiers 2013

Jean-Marie Machado - piano
Andre Minvielle - voix
Didier Ithursary - accordeon
Jean-Charles Richard - saxophone
Gueorgui Kornazov - trombone
Sylvaine Helary - flute
Francois Thuillier - tuba
Jean-Marc Quillet - vibraphone, percussions
Francois Merville - batterie

= ТРЕКЛИСТ =

= J''ai Fantaisie =
= L''Helicon =
= Meli-Melodie =
= Aubade a Lydie =
= la Fete a Boby (instru) =
= Insomnie =
= Le Papala =
= Le Vivant =
= Boby en Si Bibi =
= Ta Katie t''a quitte =


Качество: HDTVRip 1080p
Контейнер: MP4
Видео кодек: H.264
Аудио кодек: AAC
Видео: 1920x1080 (16:9), 25.00 fps, AVC, 9019 Кбит, 0.172 bits/pixel
Аудио: 48.0 KHz, AAC-LC, 2 ch, stereo, 128-384 Kbps VBR
Полное имя : G:\DVD\Jean-Marie Machado Danzas 2013\Jean-Marie Machado & Danzas invitent Andre Minvielle.mp4Формат : MPEG-4Профиль формата : Base Media / Version 2Идентификатор кодека : mp42Размер файла : 3,96 ГбайтПродолжительность : 1 ч. 0 м.Общий поток : 9407 Кбит/секДата кодирования : UTC 2013-12-27 08:44:21Дата пометки : UTC 2013-12-27 08:44:21

ВидеоИдентификатор : 2Формат : AVCФормат/Информация : Advanced Video CodecПрофиль формата : Main@L4.0Параметр CABAC формата : ДаПараметр ReFrames формата : 2 кадраИдентификатор кодека : avc1Идентификатор кодека/Информация : Advanced Video CodingПродолжительность : 1 ч. 0 м.Вид битрейта : ПеременныйБитрейт : 9019 Кбит/секМаксимальный битрейт : 9001 Кбит/секШирина : 1920 пикселейВысота : 1088 пикселейВысота оригинала : 1080 пикселейСоотношение сторон : 16:9Соотношение сторон в оригинале : 16:9Режим частоты кадров : ПостоянныйЧастота кадров : 25,000 кадров/секЧастота кадров в оригинале : 12,500 кадров/секЦветовое пространство : YUVСубдискретизация насыщенности : 4:2:0Битовая глубина : 8 битТип развёртки : ПрогрессивнаяБит/(Пиксели*Кадры) : 0.173Размер потока : 3,80 Гбайт (96%)Язык : EnglishДата кодирования : UTC 2013-12-27 08:44:21Дата пометки : UTC 2013-12-27 08:44:21

АудиоИдентификатор : 1Формат : AACФормат/Информация : Advanced Audio CodecПрофиль формата : LCИдентификатор кодека : 40Продолжительность : 1 ч. 0 м.Вид битрейта : ПостоянныйБитрейт : 384 Кбит/секНоминальный битрейт : 128 Кбит/секКаналы : 2 каналаРасположение каналов : Front: L RЧастота : 48,0 КГцМетод сжатия : С потерямиРазмер потока : 166 Мбайт (4%)Язык : EnglishДата кодирования : UTC 2013-12-27 08:44:21Дата пометки : UTC 2013-12-27 08:44:21


Трекер:  [ 29-Дек-2013 18:36 ]

  

Скачать .torrent

Размер .torrent файла 20 KB


Размер: 3.96 GB
Хэш (hash) релиза: 3cae68f05f3b6471e722447a5af2d5ce01f492f2

Еще никто не оставлял запись к записи скачать торрент Jean-Marie Machado & Danzas invitent Andre Minvielle - Jazz Sous les Pommiers 2013 . Будь первым!

!Обратная связь