Скачать через торрент музыку бесплатно без регистрации torrent

Если у вас наблюдаются проблемы со скриншотами, переходом по ссылками, скачиванием торрентов - проблемы в блокировщике рекламы AdBlock. #хорошегоДня!


Статистика раздачи
Размер:  636 MB   |    Зарегистрирован:  3 года 9 месяцев   |    .torrent скачан:  97 раз   |   
Раздают:  1  
   
Загрузка...
 
Автор Сообщение

Galfimbul

avatar Galfimbul


Hoochie Coochie Man - The Chess Story

Жанр: Blues
Носитель: CD
Страна-производитель диска: EU
Год издания: 2012
Издатель (лейбл): One Day Music
Аудиокодек: FLAC (*.flac)
Тип рипа: tracks+.cue
Битрейт аудио: lossless
Продолжительность: 67:57+64:05
Источник (релизер): Smal_AV
Наличие сканов в содержимом раздачи: да
Треклист:
CD 1

01. Muddy Waters / I''m Your Hoochie Coochie Man [0:02:51.73]
02. Big Bill Broonzy / Little City Woman [0:02:46.38]
03. Bo Diddley / Bo Diddley [0:02:29.51]
04. Clarence ''Frogman'' Henry / Ain''t Got No Home [0:02:22.14]
05. Billy Barrix / Cool Off Baby [0:02:05.64]
06. Muddy Waters / Got My Mojo Working [0:02:51.68]
07. Flamingos / I''ll Be Home [0:02:56.13]
08. Etta James / At Last [0:03:01.42]
09. Lou Josie / Vacation''s Over [0:02:10.52]
10. Howlin'' Wolf / Smokestack Lightnin'' [0:03:05.21]
11. Sugar Pie De Santo / Can''t Let You Go [0:02:45.33]
12. Monotones / Book Of Love [0:02:21.33]
13. Dale Hawkins / Suzie Q [0:02:13.23]
14. Jimmy McCracklin / The Walk [0:02:47.04]
15. Little Walter / My Babe [0:02:41.66]
16. Dick Glasser / Crazy Love [0:02:32.07]
17. Clifton Chenier / The Big Wheel [0:02:49.49]
18. Chuck Berry / Johnny B. Goode [0:02:41.17]
19. Etta James / I Just Wanna Make Love To You [0:03:06.06]
20. Rusty York / Sugaree [0:02:42.48]
21. El-Rays / Darling I Know [0:02:54.50]
22. John Lee Hooker / Sugar Mama [0:03:14.57]
23. Jackie Brenston & His Delta Cats / Rocket ''88 [0:02:49.63]
24. Memphis Slim / Walking Alone [0:02:42.69]
25. Gene Ammons / My Foolish Heart [0:02:52.14]

Cd2

01. Bo Diddley / Who Do You Love [0:02:31.12]
02. Bobby Charles / See You Later Alligator [0:02:04.29]
03. Moonglows / I Knew From The Start [0:02:50.73]
04. G. L. Crockett / Look Out Mabel [0:02:39.03]
05. T. V. Slim / Flatfoot Sam [0:02:11.25]
06. Clarence ''Frogman'' Henry / But I Do [0:02:21.10]
07. Jimmy McCracklin / I Know [0:02:16.35]
08. Rusty York / Sweet Talk [0:02:22.00]
09. Johnnie & Joe / Over The Mountain Across The Sea [0:02:19.55]
10. Chuck Berry / You Can''t Catch Me [0:02:43.37]
11. Ravens / That''ll Be The Day [0:02:18.59]
12. Sugar Pie De Santo / It Won''t Be Long [0:02:02.57]
13. Larry Diamond / True Love Come My Way [0:02:37.67]
14. Little Walter / Blues With A Feeling [0:03:07.09]
15. Flamingos / A Kiss From Your Lips [0:03:01.11]
16. Memphis Slim / Rockin'' The Pad [0:02:38.60]
17. Eddie Fontaine / Nothin'' Shakin'' [0:02:55.52]
18. Etta James / Seven Day Fool [0:03:01.42]
19. Chuck Berry / Roll Over Beethoven [0:02:24.11]
20. Lou Josie / Breezin'' Out [0:02:17.29]
21. Pastels / Been So Long [0:02:42.56]
22. Howlin'' Wolf / Come On Baby [0:02:23.74]
23. Johnny Fuller / All Night Long [0:02:56.52]
24. Coronels / Nadine [0:02:50.31]
25. Paul Gayten / Nervous Boogie [0:02:26.33]
Exact Audio Copy V1.0 beta 1 from 15. November 2010

EAC extraction logfile from 19. September 2013, 20:24

Various Artists / Hoochie Coochie Man - The Chess Story (CD1)

Used drive : PLEXTOR DVDR PX-891SA Adapter: 4 ID: 1

Read mode : SecureUtilize accurate stream : YesDefeat audio cache : YesMake use of C2 pointers : No

Read offset correction : 6Overread into Lead-In and Lead-Out : NoFill up missing offset samples with silence : YesDelete leading and trailing silent blocks : NoNull samples used in CRC calculations : YesUsed interface : Native Win32 interface for Win NT & 2000Gap handling : Appended to previous track

Used output format : User Defined EncoderSelected bitrate : 128 kBit/sQuality : HighAdd ID3 tag : NoCommand line compressor : D:\Exact Audio Copy\Flac\flac.exeAdditional command line options : -8 -V -T "ARTIST=%a" -T "TITLE=%t" -T "ALBUM=%g" -T "DATE=%y" -T "TRACKNUMBER=%n" -T "TOTALTRACKS=%x" -T "GENRE=%m" -T "ALBUMARTIST=%v" -T "ALBUM ARTIST=%v" -T "COMMENT=EAC Secure Mode, Test & Copy, AccurateRip, FLAC -8" %s

TOC of the extracted CD

Track | Start | Length | Start sector | End sector --------------------------------------------------------- 1 | 0:00.00 | 2:51.73 | 0 | 12897 2 | 2:51.73 | 2:46.38 | 12898 | 25385 3 | 5:38.36 | 2:29.51 | 25386 | 36611 4 | 8:08.12 | 2:22.14 | 36612 | 47275 5 | 10:30.26 | 2:05.64 | 47276 | 56714 6 | 12:36.15 | 2:51.68 | 56715 | 69607 7 | 15:28.08 | 2:56.13 | 69608 | 82820 8 | 18:24.21 | 3:01.42 | 82821 | 96437 9 | 21:25.63 | 2:10.52 | 96438 | 106239 10 | 23:36.40 | 3:05.21 | 106240 | 120135 11 | 26:41.61 | 2:45.33 | 120136 | 132543 12 | 29:27.19 | 2:21.33 | 132544 | 143151 13 | 31:48.52 | 2:13.23 | 143152 | 153149 14 | 34:02.00 | 2:47.04 | 153150 | 165678 15 | 36:49.04 | 2:41.66 | 165679 | 177819 16 | 39:30.70 | 2:32.07 | 177820 | 189226 17 | 42:03.02 | 2:49.49 | 189227 | 201950 18 | 44:52.51 | 2:41.17 | 201951 | 214042 19 | 47:33.68 | 3:06.06 | 214043 | 227998 20 | 50:39.74 | 2:42.48 | 227999 | 240196 21 | 53:22.47 | 2:54.50 | 240197 | 253296 22 | 56:17.22 | 3:14.57 | 253297 | 267903 23 | 59:32.04 | 2:49.63 | 267904 | 280641 24 | 62:21.67 | 2:42.69 | 280642 | 292860 25 | 65:04.61 | 2:52.14 | 292861 | 305774

Track 1

Filename D:\01 - Muddy Waters - I''m Your Hoochie Coochie Man.wav

Pre-gap length 0:00:02.00

Peak level 98.6 % Extraction speed 5.2 X Track quality 100.0 % Test CRC B09E044B Copy CRC B09E044B Track not present in AccurateRip database Copy OK

Track 2

Filename D:\02 - Big Bill Broonzy - Little City Woman.wav

Pre-gap length 0:00:01.58

Peak level 98.4 % Extraction speed 5.6 X Track quality 100.0 % Test CRC B70913A5 Copy CRC B70913A5 Track not present in AccurateRip database Copy OK

Track 3

Filename D:\03 - Bo Diddley - Bo Diddley.wav

Pre-gap length 0:00:01.58

Peak level 98.3 % Extraction speed 5.8 X Track quality 100.0 % Test CRC 3213CDCB Copy CRC 3213CDCB Track not present in AccurateRip database Copy OK

Track 4

Filename D:\04 - Clarence ''Frogman'' Henry - Ain''t Got No Home.wav

Pre-gap length 0:00:01.58

Peak level 98.6 % Extraction speed 6.0 X Track quality 100.0 % Test CRC 5FB6B448 Copy CRC 5FB6B448 Track not present in AccurateRip database Copy OK

Track 5

Filename D:\05 - Billy Barrix - Cool Off Baby.wav

Pre-gap length 0:00:01.58

Peak level 98.3 % Extraction speed 4.5 X Track quality 99.9 % Test CRC 90E29D06 Copy CRC 90E29D06 Track not present in AccurateRip database Copy OK

Track 6

Filename D:\06 - Muddy Waters - Got My Mojo Working.wav

Pre-gap length 0:00:01.58

Peak level 98.3 % Extraction speed 6.8 X Track quality 100.0 % Test CRC CAF7C851 Copy CRC CAF7C851 Track not present in AccurateRip database Copy OK

Track 7

Filename D:\07 - Flamingos - I''ll Be Home.wav

Pre-gap length 0:00:01.58

Peak level 98.3 % Extraction speed 7.1 X Track quality 100.0 % Test CRC 2005365D Copy CRC 2005365D Track not present in AccurateRip database Copy OK

Track 8

Filename D:\08 - Etta James - At Last.wav

Pre-gap length 0:00:01.58

Peak level 98.3 % Extraction speed 7.5 X Track quality 100.0 % Test CRC 5B9D4885 Copy CRC 5B9D4885 Track not present in AccurateRip database Copy OK

Track 9

Filename D:\09 - Lou Josie - Vacation''s Over.wav

Pre-gap length 0:00:01.58

Peak level 98.0 % Extraction speed 7.3 X Track quality 100.0 % Test CRC 50435003 Copy CRC 50435003 Track not present in AccurateRip database Copy OK

Track 10

Filename D:\10 - Howlin'' Wolf - Smokestack Lightnin''.wav

Pre-gap length 0:00:01.58

Peak level 98.6 % Extraction speed 6.3 X Track quality 99.9 % Test CRC E4A59241 Copy CRC E4A59241 Track not present in AccurateRip database Copy OK

Track 11

Filename D:\11 - Sugar Pie De Santo - Can''t Let You Go.wav

Pre-gap length 0:00:01.58

Peak level 98.5 % Extraction speed 8.1 X Track quality 100.0 % Test CRC 3D9BB77E Copy CRC 3D9BB77E Track not present in AccurateRip database Copy OK

Track 12

Filename D:\12 - Monotones - Book Of Love.wav

Pre-gap length 0:00:01.58

Peak level 98.4 % Extraction speed 5.9 X Track quality 99.9 % Test CRC BD037FFD Copy CRC BD037FFD Track not present in AccurateRip database Copy OK

Track 13

Filename D:\13 - Dale Hawkins - Suzie Q.wav

Pre-gap length 0:00:01.58

Peak level 98.2 % Extraction speed 8.1 X Track quality 100.0 % Test CRC 8076FBB9 Copy CRC 8076FBB9 Track not present in AccurateRip database Copy OK

Track 14

Filename D:\14 - Jimmy McCracklin - The Walk.wav

Pre-gap length 0:00:01.58

Peak level 88.6 % Extraction speed 6.7 X Track quality 99.9 % Test CRC 288EC58B Copy CRC 288EC58B Track not present in AccurateRip database Copy OK

Track 15

Filename D:\15 - Little Walter - My Babe.wav

Pre-gap length 0:00:01.58

Peak level 85.8 % Extraction speed 8.9 X Track quality 100.0 % Test CRC 36E75E20 Copy CRC 36E75E20 Track not present in AccurateRip database Copy OK

Track 16

Filename D:\16 - Dick Glasser - Crazy Love.wav

Pre-gap length 0:00:01.58

Peak level 98.3 % Extraction speed 6.7 X Track quality 99.9 % Test CRC E069402B Copy CRC E069402B Track not present in AccurateRip database Copy OK

Track 17

Filename D:\17 - Clifton Chenier - The Big Wheel.wav

Pre-gap length 0:00:01.58

Peak level 98.3 % Extraction speed 7.2 X Track quality 99.9 % Test CRC 6BC0C123 Copy CRC 6BC0C123 Track not present in AccurateRip database Copy OK

Track 18

Filename D:\18 - Chuck Berry - Johnny B. Goode.wav

Pre-gap length 0:00:01.58

Peak level 98.4 % Extraction speed 9.5 X Track quality 100.0 % Test CRC 9F61662B Copy CRC 9F61662B Track not present in AccurateRip database Copy OK

Track 19

Filename D:\19 - Etta James - I Just Wanna Make Love To You.wav

Pre-gap length 0:00:01.58

Peak level 98.3 % Extraction speed 10.0 X Track quality 100.0 % Test CRC 814725C6 Copy CRC 814725C6 Track not present in AccurateRip database Copy OK

Track 20

Filename D:\20 - Rusty York - Sugaree.wav

Pre-gap length 0:00:01.58

Peak level 98.3 % Extraction speed 10.0 X Track quality 100.0 % Test CRC 0F88A880 Copy CRC 0F88A880 Track not present in AccurateRip database Copy OK

Track 21

Filename D:\21 - El-Rays - Darling I Know.wav

Pre-gap length 0:00:01.58

Peak level 98.3 % Extraction speed 8.0 X Track quality 99.9 % Test CRC 7CB5C547 Copy CRC 7CB5C547 Track not present in AccurateRip database Copy OK

Track 22

Filename D:\22 - John Lee Hooker - Sugar Mama.wav

Pre-gap length 0:00:01.58

Peak level 98.8 % Extraction speed 10.8 X Track quality 100.0 % Test CRC DF395D98 Copy CRC DF395D98 Track not present in AccurateRip database Copy OK

Track 23

Filename D:\23 - Jackie Brenston & His Delta Cats - Rocket ''88.wav

Pre-gap length 0:00:01.58

Peak level 98.3 % Extraction speed 10.6 X Track quality 100.0 % Test CRC ADF89DAD Copy CRC ADF89DAD Track not present in AccurateRip database Copy OK

Track 24

Filename D:\24 - Memphis Slim - Walking Alone.wav

Pre-gap length 0:00:01.58

Peak level 98.3 % Extraction speed 10.8 X Track quality 100.0 % Test CRC 8983D539 Copy CRC 8983D539 Track not present in AccurateRip database Copy OK

Track 25

Filename D:\25 - Gene Ammons - My Foolish Heart.wav

Pre-gap length 0:00:01.58

Peak level 94.3 % Extraction speed 11.1 X Track quality 100.0 % Test CRC C62FBE9B Copy CRC C62FBE9B Track not present in AccurateRip database Copy OK

None of the tracks are present in the AccurateRip database

No errors occurred

End of status report

==== Log checksum EA007199E3AA8A420D6CA217880B87932F56DB7EBC077BB7E230C22C741FE473 ====

---------------------------

Exact Audio Copy V1.0 beta 1 from 15. November 2010

EAC extraction logfile from 19. September 2013, 21:29

Various Artists / Hoochie Coochie Man - The Chess Story (CD2)

Used drive : PLEXTOR DVDR PX-891SA Adapter: 4 ID: 1

Read mode : SecureUtilize accurate stream : YesDefeat audio cache : YesMake use of C2 pointers : No

Read offset correction : 6Overread into Lead-In and Lead-Out : NoFill up missing offset samples with silence : YesDelete leading and trailing silent blocks : NoNull samples used in CRC calculations : YesUsed interface : Native Win32 interface for Win NT & 2000Gap handling : Appended to previous track

Used output format : User Defined EncoderSelected bitrate : 128 kBit/sQuality : HighAdd ID3 tag : NoCommand line compressor : D:\Exact Audio Copy\Flac\flac.exeAdditional command line options : -8 -V -T "ARTIST=%a" -T "TITLE=%t" -T "ALBUM=%g" -T "DATE=%y" -T "TRACKNUMBER=%n" -T "TOTALTRACKS=%x" -T "GENRE=%m" -T "ALBUMARTIST=%v" -T "ALBUM ARTIST=%v" -T "COMMENT=EAC Secure Mode, Test & Copy, AccurateRip, FLAC -8" %s

TOC of the extracted CD

Track | Start | Length | Start sector | End sector --------------------------------------------------------- 1 | 0:00.00 | 2:31.12 | 0 | 11336 2 | 2:31.12 | 2:04.29 | 11337 | 20665 3 | 4:35.41 | 2:50.73 | 20666 | 33488 4 | 7:26.39 | 2:39.03 | 33489 | 45416 5 | 10:05.42 | 2:11.25 | 45417 | 55266 6 | 12:16.67 | 2:21.10 | 55267 | 65851 7 | 14:38.02 | 2:16.35 | 65852 | 76086 8 | 16:54.37 | 2:22.00 | 76087 | 86736 9 | 19:16.37 | 2:19.55 | 86737 | 97216 10 | 21:36.17 | 2:43.37 | 97217 | 109478 11 | 24:19.54 | 2:18.59 | 109479 | 119887 12 | 26:38.38 | 2:02.57 | 119888 | 129094 13 | 28:41.20 | 2:37.67 | 129095 | 140936 14 | 31:19.12 | 3:07.09 | 140937 | 154970 15 | 34:26.21 | 3:01.11 | 154971 | 168556 16 | 37:27.32 | 2:38.60 | 168557 | 180466 17 | 40:06.17 | 2:55.52 | 180467 | 193643 18 | 43:01.69 | 3:01.42 | 193644 | 207260 19 | 46:03.36 | 2:24.11 | 207261 | 218071 20 | 48:27.47 | 2:17.29 | 218072 | 228375 21 | 50:45.01 | 2:42.56 | 228376 | 240581 22 | 53:27.57 | 2:23.74 | 240582 | 251380 23 | 55:51.56 | 2:56.52 | 251381 | 264632 24 | 58:48.33 | 2:50.31 | 264633 | 277413 25 | 61:38.64 | 2:26.33 | 277414 | 288396

Track 1

Filename D:\01 - Bo Diddley - Who Do You Love.wav

Pre-gap length 0:00:02.00

Peak level 98.3 % Extraction speed 5.0 X Track quality 100.0 % Test CRC EFB9C55F Copy CRC EFB9C55F Track not present in AccurateRip database Copy OK

Track 2

Filename D:\02 - Bobby Charles - See You Later Alligator.wav

Pre-gap length 0:00:01.58

Peak level 98.3 % Extraction speed 5.1 X Track quality 100.0 % Test CRC 1C0CC80B Copy CRC 1C0CC80B Track not present in AccurateRip database Copy OK

Track 3

Filename D:\03 - Moonglows - I Knew From The Start.wav

Pre-gap length 0:00:01.58

Peak level 98.3 % Extraction speed 5.8 X Track quality 100.0 % Test CRC FC722680 Copy CRC FC722680 Track not present in AccurateRip database Copy OK

Track 4

Filename D:\04 - G. L. Crockett - Look Out Mabel.wav

Pre-gap length 0:00:01.58

Peak level 98.3 % Extraction speed 4.6 X Track quality 99.9 % Test CRC 294EC820 Copy CRC 294EC820 Track not present in AccurateRip database Copy OK

Track 5

Filename D:\05 - T. V. Slim - Flatfoot Sam.wav

Pre-gap length 0:00:01.58

Peak level 98.4 % Extraction speed 6.1 X Track quality 100.0 % Test CRC 592B5028 Copy CRC 592B5028 Track not present in AccurateRip database Copy OK

Track 6

Filename D:\06 - Clarence ''Frogman'' Henry - But I Do.wav

Pre-gap length 0:00:01.58

Peak level 98.3 % Extraction speed 4.8 X Track quality 99.9 % Test CRC 215ACEE1 Copy CRC 215ACEE1 Track not present in AccurateRip database Copy OK

Track 7

Filename D:\07 - Jimmy McCracklin - I Know.wav

Pre-gap length 0:00:01.58

Peak level 98.4 % Extraction speed 4.9 X Track quality 99.9 % Test CRC 4009D6B8 Copy CRC 4009D6B8 Track not present in AccurateRip database Copy OK

Track 8

Filename D:\08 - Rusty York - Sweet Talk.wav

Pre-gap length 0:00:01.58

Peak level 98.3 % Extraction speed 6.9 X Track quality 100.0 % Test CRC 37559DC2 Copy CRC 37559DC2 Track not present in AccurateRip database Copy OK

Track 9

Filename D:\09 - Johnnie & Joe - Over The Mountain Across The Sea.wav

Pre-gap length 0:00:01.58

Peak level 98.3 % Extraction speed 7.1 X Track quality 100.0 % Test CRC 148CB969 Copy CRC 148CB969 Track not present in AccurateRip database Copy OK

Track 10

Filename D:\10 - Chuck Berry - You Can''t Catch Me.wav

Pre-gap length 0:00:01.58

Peak level 84.8 % Extraction speed 7.6 X Track quality 100.0 % Test CRC 9E1E7E7D Copy CRC 9E1E7E7D Track not present in AccurateRip database Copy OK

Track 11

Filename D:\11 - Ravens - That''ll Be The Day.wav

Pre-gap length 0:00:01.58

Peak level 98.4 % Extraction speed 5.6 X Track quality 99.9 % Test CRC D41FAA7E Copy CRC D41FAA7E Track not present in AccurateRip database Copy OK

Track 12

Filename D:\12 - Sugar Pie De Santo - It Won''t Be Long.wav

Pre-gap length 0:00:01.58

Peak level 98.4 % Extraction speed 7.6 X Track quality 100.0 % Test CRC 750D4589 Copy CRC 750D4589 Track not present in AccurateRip database Copy OK

Track 13

Filename D:\13 - Larry Diamond - True Love Come My Way.wav

Pre-gap length 0:00:01.58

Peak level 98.4 % Extraction speed 8.2 X Track quality 100.0 % Test CRC 3194FBDA Copy CRC 3194FBDA Track not present in AccurateRip database Copy OK

Track 14

Filename D:\14 - Little Walter - Blues With A Feeling.wav

Pre-gap length 0:00:01.58

Peak level 98.4 % Extraction speed 8.6 X Track quality 100.0 % Test CRC 351A4173 Copy CRC 351A4173 Track not present in AccurateRip database Copy OK

Track 15

Filename D:\15 - Flamingos - A Kiss From Your Lips.wav

Pre-gap length 0:00:01.58

Peak level 98.8 % Extraction speed 9.0 X Track quality 100.0 % Test CRC BAEC01EC Copy CRC BAEC01EC Track not present in AccurateRip database Copy OK

Track 16

Filename D:\16 - Memphis Slim - Rockin'' The Pad.wav

Pre-gap length 0:00:01.58

Peak level 98.5 % Extraction speed 9.0 X Track quality 100.0 % Test CRC D6070361 Copy CRC D6070361 Track not present in AccurateRip database Copy OK

Track 17

Filename D:\17 - Eddie Fontaine - Nothin'' Shakin''.wav

Pre-gap length 0:00:01.58

Peak level 98.3 % Extraction speed 9.3 X Track quality 100.0 % Test CRC 8C7EF69A Copy CRC 8C7EF69A Track not present in AccurateRip database Copy OK

Track 18

Filename D:\18 - Etta James - Seven Day Fool.wav

Pre-gap length 0:00:01.58

Peak level 98.2 % Extraction speed 9.7 X Track quality 100.0 % Test CRC 00CC0525 Copy CRC 00CC0525 Track not present in AccurateRip database Copy OK

Track 19

Filename D:\19 - Chuck Berry - Roll Over Beethoven.wav

Pre-gap length 0:00:01.58

Peak level 98.3 % Extraction speed 9.3 X Track quality 100.0 % Test CRC 640239BB Copy CRC 640239BB Track not present in AccurateRip database Copy OK

Track 20

Filename D:\20 - Lou Josie - Breezin'' Out.wav

Pre-gap length 0:00:01.58

Peak level 98.6 % Extraction speed 9.5 X Track quality 100.0 % Test CRC C66DC86B Copy CRC C66DC86B Track not present in AccurateRip database Copy OK

Track 21

Filename D:\21 - Pastels - Been So Long.wav

Pre-gap length 0:00:01.58

Peak level 98.6 % Extraction speed 10.0 X Track quality 100.0 % Test CRC D33C4028 Copy CRC D33C4028 Track not present in AccurateRip database Copy OK

Track 22

Filename D:\22 - Howlin'' Wolf - Come On Baby.wav

Pre-gap length 0:00:01.58

Peak level 98.2 % Extraction speed 9.9 X Track quality 100.0 % Test CRC 70834E92 Copy CRC 70834E92 Track not present in AccurateRip database Copy OK

Track 23

Filename D:\23 - Johnny Fuller - All Night Long.wav

Pre-gap length 0:00:01.58

Peak level 98.4 % Extraction speed 10.3 X Track quality 100.0 % Test CRC 4BDE1895 Copy CRC 4BDE1895 Track not present in AccurateRip database Copy OK

Track 24

Filename D:\24 - Coronels - Nadine.wav

Pre-gap length 0:00:01.58

Peak level 98.3 % Extraction speed 10.5 X Track quality 100.0 % Test CRC 24F55945 Copy CRC 24F55945 Track not present in AccurateRip database Copy OK

Track 25

Filename D:\25 - Paul Gayten - Nervous Boogie.wav

Pre-gap length 0:00:01.58

Peak level 98.1 % Extraction speed 7.6 X Track quality 99.9 % Test CRC 84F4EA47 Copy CRC 84F4EA47 Track not present in AccurateRip database Copy OK

None of the tracks are present in the AccurateRip database

No errors occurred

End of status report

==== Log checksum 5FAFBBC40F265B12E2452E4C95D7D10280736DD9972354B818846D96BC5D08D9 ====
REM GENRE BluesREM DATE 2012REM DISCID 530FED19REM COMMENT "ExactAudioCopy v1.0b1"PERFORMER "Various Artists"TITLE "Hoochie Coochie Man - The Chess Story (CD1)"FILE "01 - Muddy Waters - I''m Your Hoochie Coochie Man.wav" WAVE TRACK 01 AUDIO TITLE "I''m Your Hoochie Coochie Man" PERFORMER "Muddy Waters" INDEX 01 00:00:00 TRACK 02 AUDIO TITLE "Little City Woman" PERFORMER "Big Bill Broonzy" INDEX 00 02:50:15FILE "02 - Big Bill Broonzy - Little City Woman.wav" WAVE INDEX 01 00:00:00 TRACK 03 AUDIO TITLE "Bo Diddley" PERFORMER "Bo Diddley" INDEX 00 02:44:55FILE "03 - Bo Diddley - Bo Diddley.wav" WAVE INDEX 01 00:00:00 TRACK 04 AUDIO TITLE "Ain''t Got No Home" PERFORMER "Clarence ''Frogman'' Henry" INDEX 00 02:27:68FILE "04 - Clarence ''Frogman'' Henry - Ain''t Got No Home.wav" WAVE INDEX 01 00:00:00 TRACK 05 AUDIO TITLE "Cool Off Baby" PERFORMER "Billy Barrix" INDEX 00 02:20:31FILE "05 - Billy Barrix - Cool Off Baby.wav" WAVE INDEX 01 00:00:00 TRACK 06 AUDIO TITLE "Got My Mojo Working" PERFORMER "Muddy Waters" INDEX 00 02:04:06FILE "06 - Muddy Waters - Got My Mojo Working.wav" WAVE INDEX 01 00:00:00 TRACK 07 AUDIO TITLE "I''ll Be Home" PERFORMER "Flamingos" INDEX 00 02:50:10FILE "07 - Flamingos - I''ll Be Home.wav" WAVE INDEX 01 00:00:00 TRACK 08 AUDIO TITLE "At Last" PERFORMER "Etta James" INDEX 00 02:54:30FILE "08 - Etta James - At Last.wav" WAVE INDEX 01 00:00:00 TRACK 09 AUDIO TITLE "Vacation''s Over" PERFORMER "Lou Josie" INDEX 00 02:59:59FILE "09 - Lou Josie - Vacation''s Over.wav" WAVE INDEX 01 00:00:00 TRACK 10 AUDIO TITLE "Smokestack Lightnin''" PERFORMER "Howlin'' Wolf" INDEX 00 02:08:69FILE "10 - Howlin'' Wolf - Smokestack Lightnin''.wav" WAVE INDEX 01 00:00:00 TRACK 11 AUDIO TITLE "Can''t Let You Go" PERFORMER "Sugar Pie De Santo" INDEX 00 03:03:38FILE "11 - Sugar Pie De Santo - Can''t Let You Go.wav" WAVE INDEX 01 00:00:00 TRACK 12 AUDIO TITLE "Book Of Love" PERFORMER "Monotones" INDEX 00 02:43:50FILE "12 - Monotones - Book Of Love.wav" WAVE INDEX 01 00:00:00 TRACK 13 AUDIO TITLE "Suzie Q" PERFORMER "Dale Hawkins" INDEX 00 02:19:50FILE "13 - Dale Hawkins - Suzie Q.wav" WAVE INDEX 01 00:00:00 TRACK 14 AUDIO TITLE "The Walk" PERFORMER "Jimmy McCracklin" INDEX 00 02:11:40FILE "14 - Jimmy McCracklin - The Walk.wav" WAVE INDEX 01 00:00:00 TRACK 15 AUDIO TITLE "My Babe" PERFORMER "Little Walter" INDEX 00 02:45:21FILE "15 - Little Walter - My Babe.wav" WAVE INDEX 01 00:00:00 TRACK 16 AUDIO TITLE "Crazy Love" PERFORMER "Dick Glasser" INDEX 00 02:40:08FILE "16 - Dick Glasser - Crazy Love.wav" WAVE INDEX 01 00:00:00 TRACK 17 AUDIO TITLE "The Big Wheel" PERFORMER "Clifton Chenier" INDEX 00 02:30:24FILE "17 - Clifton Chenier - The Big Wheel.wav" WAVE INDEX 01 00:00:00 TRACK 18 AUDIO TITLE "Johnny B. Goode" PERFORMER "Chuck Berry" INDEX 00 02:47:66FILE "18 - Chuck Berry - Johnny B. Goode.wav" WAVE INDEX 01 00:00:00 TRACK 19 AUDIO TITLE "I Just Wanna Make Love To You" PERFORMER "Etta James" INDEX 00 02:39:34FILE "19 - Etta James - I Just Wanna Make Love To You.wav" WAVE INDEX 01 00:00:00 TRACK 20 AUDIO TITLE "Sugaree" PERFORMER "Rusty York" INDEX 00 03:04:23FILE "20 - Rusty York - Sugaree.wav" WAVE INDEX 01 00:00:00 TRACK 21 AUDIO TITLE "Darling I Know" PERFORMER "El-Rays" INDEX 00 02:40:65FILE "21 - El-Rays - Darling I Know.wav" WAVE INDEX 01 00:00:00 TRACK 22 AUDIO TITLE "Sugar Mama" PERFORMER "John Lee Hooker" INDEX 00 02:52:67FILE "22 - John Lee Hooker - Sugar Mama.wav" WAVE INDEX 01 00:00:00 TRACK 23 AUDIO TITLE "Rocket ''88" PERFORMER "Jackie Brenston & His Delta Cats" INDEX 00 03:12:74FILE "23 - Jackie Brenston & His Delta Cats - Rocket ''88.wav" WAVE INDEX 01 00:00:00 TRACK 24 AUDIO TITLE "Walking Alone" PERFORMER "Memphis Slim" INDEX 00 02:48:05FILE "24 - Memphis Slim - Walking Alone.wav" WAVE INDEX 01 00:00:00 TRACK 25 AUDIO TITLE "My Foolish Heart" PERFORMER "Gene Ammons" INDEX 00 02:41:11FILE "25 - Gene Ammons - My Foolish Heart.wav" WAVE INDEX 01 00:00:00

----------

REM GENRE BluesREM DATE 2012REM DISCID 600F0519REM COMMENT "ExactAudioCopy v1.0b1"PERFORMER "Various Artists"TITLE "Hoochie Coochie Man - The Chess Story (CD2)"FILE "01 - Bo Diddley - Who Do You Love.wav" WAVE TRACK 01 AUDIO TITLE "Who Do You Love" PERFORMER "Bo Diddley" INDEX 01 00:00:00 TRACK 02 AUDIO TITLE "See You Later Alligator" PERFORMER "Bobby Charles" INDEX 00 02:29:29FILE "02 - Bobby Charles - See You Later Alligator.wav" WAVE INDEX 01 00:00:00 TRACK 03 AUDIO TITLE "I Knew From The Start" PERFORMER "Moonglows" INDEX 00 02:02:46FILE "03 - Moonglows - I Knew From The Start.wav" WAVE INDEX 01 00:00:00 TRACK 04 AUDIO TITLE "Look Out Mabel" PERFORMER "G. L. Crockett" INDEX 00 02:49:15FILE "04 - G. L. Crockett - Look Out Mabel.wav" WAVE INDEX 01 00:00:00 TRACK 05 AUDIO TITLE "Flatfoot Sam" PERFORMER "T. V. Slim" INDEX 00 02:37:20FILE "05 - T. V. Slim - Flatfoot Sam.wav" WAVE INDEX 01 00:00:00 TRACK 06 AUDIO TITLE "But I Do" PERFORMER "Clarence ''Frogman'' Henry" INDEX 00 02:09:42FILE "06 - Clarence ''Frogman'' Henry - But I Do.wav" WAVE INDEX 01 00:00:00 TRACK 07 AUDIO TITLE "I Know" PERFORMER "Jimmy McCracklin" INDEX 00 02:19:27FILE "07 - Jimmy McCracklin - I Know.wav" WAVE INDEX 01 00:00:00 TRACK 08 AUDIO TITLE "Sweet Talk" PERFORMER "Rusty York" INDEX 00 02:14:52FILE "08 - Rusty York - Sweet Talk.wav" WAVE INDEX 01 00:00:00 TRACK 09 AUDIO TITLE "Over The Mountain Across The Sea" PERFORMER "Johnnie & Joe" INDEX 00 02:20:17FILE "09 - Johnnie & Joe - Over The Mountain Across The Sea.wav" WAVE INDEX 01 00:00:00 TRACK 10 AUDIO TITLE "You Can''t Catch Me" PERFORMER "Chuck Berry" INDEX 00 02:17:72FILE "10 - Chuck Berry - You Can''t Catch Me.wav" WAVE INDEX 01 00:00:00 TRACK 11 AUDIO TITLE "That''ll Be The Day" PERFORMER "Ravens" INDEX 00 02:41:54FILE "11 - Ravens - That''ll Be The Day.wav" WAVE INDEX 01 00:00:00 TRACK 12 AUDIO TITLE "It Won''t Be Long" PERFORMER "Sugar Pie De Santo" INDEX 00 02:17:01FILE "12 - Sugar Pie De Santo - It Won''t Be Long.wav" WAVE INDEX 01 00:00:00 TRACK 13 AUDIO TITLE "True Love Come My Way" PERFORMER "Larry Diamond" INDEX 00 02:00:74FILE "13 - Larry Diamond - True Love Come My Way.wav" WAVE INDEX 01 00:00:00 TRACK 14 AUDIO TITLE "Blues With A Feeling" PERFORMER "Little Walter" INDEX 00 02:36:09FILE "14 - Little Walter - Blues With A Feeling.wav" WAVE INDEX 01 00:00:00 TRACK 15 AUDIO TITLE "A Kiss From Your Lips" PERFORMER "Flamingos" INDEX 00 03:05:26FILE "15 - Flamingos - A Kiss From Your Lips.wav" WAVE INDEX 01 00:00:00 TRACK 16 AUDIO TITLE "Rockin'' The Pad" PERFORMER "Memphis Slim" INDEX 00 02:59:28FILE "16 - Memphis Slim - Rockin'' The Pad.wav" WAVE INDEX 01 00:00:00 TRACK 17 AUDIO TITLE "Nothin'' Shakin''" PERFORMER "Eddie Fontaine" INDEX 00 02:37:02FILE "17 - Eddie Fontaine - Nothin'' Shakin''.wav" WAVE INDEX 01 00:00:00 TRACK 18 AUDIO TITLE "Seven Day Fool" PERFORMER "Etta James" INDEX 00 02:53:69FILE "18 - Etta James - Seven Day Fool.wav" WAVE INDEX 01 00:00:00 TRACK 19 AUDIO TITLE "Roll Over Beethoven" PERFORMER "Chuck Berry" INDEX 00 02:59:59FILE "19 - Chuck Berry - Roll Over Beethoven.wav" WAVE INDEX 01 00:00:00 TRACK 20 AUDIO TITLE "Breezin'' Out" PERFORMER "Lou Josie" INDEX 00 02:22:28FILE "20 - Lou Josie - Breezin'' Out.wav" WAVE INDEX 01 00:00:00 TRACK 21 AUDIO TITLE "Been So Long" PERFORMER "Pastels" INDEX 00 02:15:46FILE "21 - Pastels - Been So Long.wav" WAVE INDEX 01 00:00:00 TRACK 22 AUDIO TITLE "Come On Baby" PERFORMER "Howlin'' Wolf" INDEX 00 02:40:73FILE "22 - Howlin'' Wolf - Come On Baby.wav" WAVE INDEX 01 00:00:00 TRACK 23 AUDIO TITLE "All Night Long" PERFORMER "Johnny Fuller" INDEX 00 02:22:16FILE "23 - Johnny Fuller - All Night Long.wav" WAVE INDEX 01 00:00:00 TRACK 24 AUDIO TITLE "Nadine" PERFORMER "Coronels" INDEX 00 02:54:69FILE "24 - Coronels - Nadine.wav" WAVE INDEX 01 00:00:00 TRACK 25 AUDIO TITLE "Nervous Boogie" PERFORMER "Paul Gayten" INDEX 00 02:48:48FILE "25 - Paul Gayten - Nervous Boogie.wav" WAVE INDEX 01 00:00:00
Всех с Новым Годом!!!

Трекер:  [ 29-Дек-2013 18:36 ]

  

Скачать .torrent

Размер .torrent файла 17 KB


Размер: 636 MB
Хэш (hash) релиза: 524365dea45688b7a5745c535980cf50bb9c0a0f

Еще никто не оставлял запись к записи скачать торрент . Будь первым!

!Обратная связь