Скачать через торрент музыку Lali Puna - Berlin Festival 2010 бесплатно без регистрации torrent

Если у вас наблюдаются проблемы со скриншотами, переходом по ссылками, скачиванием торрентов - проблемы в блокировщике рекламы AdBlock. #хорошегоДня!


Статистика раздачи
Размер:  2.28 GB   |    Зарегистрирован:  3 года 9 месяцев   |    .torrent скачан:  39 раз   |   
Раздают:  1  
   
Загрузка...
 
Автор Сообщение

Galfimbul

avatar Galfimbul


Lali Puna
- Berlin Festival 2010 -



Hangar 5 Stage, Berlin-Tempelhof, 2010-09-11
(Re-)broadcast on ZDF Kultur HD on 2013-05-17


Жанр: Electropop, Indietronic
Продолжительность: 00:28:54
Год выпуска: 2013

Valerie Trebeljahr - Vocals, Keyboards
Markus Acher - Bass, Keyboards
Christoph Brandner - Drums
Christian Heir - Keyboards
01. Faking The Books
02. Everything Is Always
03. Micronomic
04. Call 1-800-Fear
05. Everywhere And Allover
06. Grin And Bear
Качество: HDTVRip 720p
Контейнер: MKV
Видео кодек: H.264
Аудио кодек: AC3
Видео: MPEG4 Video (H264) 1280x720 50fps 10.6 Mbps
Аудио: Dolby AC3 48000Hz stereo
GeneralUnique ID : 225059718274359497441376212357160962620 (0xA950ECD1631C8694AC025D906B950A3C)Complete name : E:\Lali Puna - Berlin Festival 2010 .mkvFormat : MatroskaFormat version : Version 2File size : 2.28 GiBDuration : 28mn 53sOverall bit rate : 11.3 MbpsEncoded date : UTC 2013-05-31 08:41:43Writing application : mkvmerge v6.2.0 (''Promised Land'') built on Apr 28 2013 12:22:01Writing library : libebml v1.3.0 + libmatroska v1.4.0

VideoID : 1Format : AVCFormat/Info : Advanced Video CodecFormat profile : High@L4.0Format settings, CABAC : YesFormat settings, ReFrames : 6 framesCodec ID : V_MPEG4/ISO/AVCDuration : 28mn 53sBit rate : 10.6 MbpsWidth : 1 280 pixelsHeight : 720 pixelsDisplay aspect ratio : 16:9Frame rate mode : ConstantFrame rate : 50.000 fpsColor space : YUVChroma subsampling : 4:2:0Bit depth : 8 bitsScan type : ProgressiveBits/(Pixel*Frame) : 0.231Stream size : 2.15 GiB (94%)Default : YesForced : NoColor primaries : BT.709Transfer characteristics : BT.709Matrix coefficients : BT.709

AudioID : 2Format : AC-3Format/Info : Audio Coding 3Mode extension : CM (complete main)Format settings, Endianness : BigCodec ID : A_AC3Duration : 28mn 53sBit rate mode : ConstantBit rate : 448 KbpsChannel(s) : 2 channelsChannel positions : Front: L RSampling rate : 48.0 KHzBit depth : 16 bitsCompression mode : LossyDelay relative to video : 109msStream size : 92.6 MiB (4%)Language : GermanDefault : YesForced : No


Трекер:  [ 29-Дек-2013 13:35 ]

  

Скачать .torrent

Размер .torrent файла 12 KB


Размер: 2.28 GB
Хэш (hash) релиза: bdbb6bc1d64a87088c73f314bd75af07cd9240a2

Еще никто не оставлял запись к записи скачать торрент Lali Puna - Berlin Festival 2010 . Будь первым!

!Обратная связь