Скачать через торрент музыку iamamiwhoami - kin бесплатно без регистрации torrent

Если у вас наблюдаются проблемы со скриншотами, переходом по ссылками, скачиванием торрентов - проблемы в блокировщике рекламы AdBlock. #хорошегоДня!


Статистика раздачи
Размер:  2.41 GB   |    Зарегистрирован:  3 года 9 месяцев   |    .torrent скачан:  43 раза   |   
Раздают:  1  
   
Загрузка...
 
Автор Сообщение

Galfimbul

avatar Galfimbul




Жанр: Indietronica, synthpop, experimental, ambient
Продолжительность: 00:45:00
Год выпуска: 2012

Качество: WEBRip 1080i
Контейнер: MKV
Видео: H264, 1920x1080, 6549 Kbps, 25 fps
Аудио 1: MP3, 320 Kbps, 48000kHz, 2.0 Stereo
Аудио 2: AC3, 640 Kbps, 48000kHz, 5.1 Surround
Субтитры: присутствуют, отключаемые (лирика на англ.)

Треклист:
01. intro (00:00:00 - 00:00:37)
02. sever (00:00:37 - 00:04:35)
03. drops (00:04:35 - 00:09:17)
04. good worker (00:09:17 - 00:14:17)
05. play (00:14:17 - 00:19:41)
06. in due order (00:19:41 - 00:23:06)
07. idle talk (00:23:06 - 00:28:22)
08. rascal (00:28:22 - 00:33:08)
09. kill (00:33:08 - 00:39:35)
10. goods (00:39:35 - 00:45:00)

Трейлер
Чтобы сегодня удивить кого-то вирусными видеороликами, их создателям приходится лезть из кожи вон, лишь бы обратить на себя внимание. Мистическому проекту под названием ‘iamamiwhoami’ это удалось удивительно легко. В декабре 2009 года на YouTube стали появляться в высшей мере странные видеоклипы, ссылки на которые авторы рассылали редакторам некоторых веб-сайтов. Неудивительно, что сразу появилось несколько версий, кем является девушка из видео. На тот момент наиболее вероятным считалось, что это Jonna Lee, хотя официального подтверждения ни от нее ни от ее лейбла не поступало.

Ролики были опубликованы в таком порядке: B, O, U-1, U-2, N, T, Y. Это дает некоторые основания думать, что адрес http://www.iambounty.com как-то связан с проектом iamamiwhoami, тем более, что он был зарегистрирован в июне 2009 года на саму Йонну (Jonna Lee).

Йонна Ли родилась в 1981 году в городе Линчёпинг и выросла в небольшой шведской деревне. Будучи музыкальным ребенком с раннего возраста, она не нашла в семье без музыкальных наклонностей способа развивать свой музыкальный дар. Тогда Йонна, будучи подростком, упаковала свои вещи и сбежала в Лондон, чтобы начать новую жизнь, полную музыки.

Её первая встреча с музыкальным бизнесом произошла в возрасте 17 лет, когда она в качестве члена дуэта выпустила свой первый альбом. Будучи неудовлетворенной разделением внимания, Йонна Ли начала свою сольную карьеру и научилась играть на всех необходимых инструментах, чтобы начать писать свою собственную музыку.
kin - это дебютный аудиовизуальный альбом мультимедийного музыкального проекта iamamiwhoami, под предводительством шведской исполнительницы Йонны Ли. Структура треков альбома содержит в себе помесь таких музыкальных жанров как индитроника, синтпоп, эмбиент, дрим-поп, трип-хоп, даунтемпо. Релиз был подготовлен мною (Descarado) способом монтажа оригинальных видеоклипов с официального канала iamamiwhoami на YouTube в единый фильм с плавными переходами. Звуковые переходы используемые между клипами взяты из официального DVD-издания альбома. Многоканальное аудио было воссоздано мной вручную методами выделения и пересведения из источника с меньшим количеством каналов (lossless). Используемый текст лирики композиций для субтитров был взят из раздела iamamiwhoami в Wikia.
ОбщееУникальный идентификатор : 203315316491736918021833663867038138149 (0x98F51B09CEB7A22F82E0D94CA5D6FF25)Полное имя : C:\iamamiwhoami; kin.mkvФормат : MatroskaВерсия формата : Version 2Размер файла : 2,41 ГбайтПродолжительность : 45 м.Общий поток : 7661 Кбит/секДата кодирования : UTC 2013-06-07 19:54:48Программа кодирования : mkvmerge v5.7.0 (''The Whirlwind'') built on Jul 8 2012 20:08:51Библиотека кодирования : libebml v1.2.3 + libmatroska v1.3.0

ВидеоИдентификатор : 1Формат : AVCФормат/Информация : Advanced Video CodecПрофиль формата : High@L5.1Параметр CABAC формата : ДаПараметр ReFrames формата : 3 кадраПараметр GOP формата : M=3, N=33Режим смешивания : Header strippingИдентификатор кодека : V_MPEG4/ISO/AVCПродолжительность : 45 м.Битрейт : 6549 Кбит/секШирина : 1920 пикселейВысота : 1080 пикселейСоотношение сторон : 16:9Режим частоты кадров : ПостоянныйЧастота кадров : 25,000 кадров/секСтандарт вещания : PALЦветовое пространство : YUVСубдискретизация насыщенности : 4:2:0Битовая глубина : 8 битТип развёртки : ПрогрессивнаяБит/(Пиксели*Кадры) : 0.126Размер потока : 2,06 Гбайт (85%)Язык : EnglishОсновные цвета : BT.709Характеристики трансфера : BT.709Коэффициенты матрицы : BT.709

Аудио #1Идентификатор : 2Формат : MPEG AudioВерсия формата : Version 1Профиль формата : Layer 3Режим : Joint stereoРежим смешивания : Header strippingИдентификатор кодека : A_MPEG/L3Идентификатор кодека/Подсказка : MP3Продолжительность : 45 м.Вид битрейта : ПостоянныйБитрейт : 320 Кбит/секКаналы : 2 каналаЧастота : 48,0 КГцМетод сжатия : С потерямиРазмер потока : 103 Мбайт (4%)Заголовок : Stereo 2.0Язык : English

Аудио #2Идентификатор : 3Формат : AC-3Формат/Информация : Audio Coding 3Расширение режима : CM (complete main)Параметр Endianness формата : BigРежим смешивания : Header strippingИдентификатор кодека : A_AC3Продолжительность : 45 м.Вид битрейта : ПостоянныйБитрейт : 640 Кбит/секКаналы : 6 каналовРасположение каналов : Front: L C R, Side: L R, LFEЧастота : 48,0 КГцБитовая глубина : 16 битМетод сжатия : С потерямиРазмер потока : 206 Мбайт (8%)Заголовок : Surround 5.1Язык : English

СубтитрыИдентификатор : 4Формат : UTF-8Идентификатор кодека : S_TEXT/UTF8Идентификатор кодека/Информация : UTF-8 Plain TextЗаголовок : LyricsЯзык : English

Меню00:00:00.000 : :intro00:00:37.000 : :sever00:04:35.000 : :drops00:09:17.000 : :good worker00:14:17.000 : :play00:19:41.000 : :in due order00:23:06.000 : :idle talk00:28:22.000 : :rascal00:33:08.000 : :kill00:39:35.000 : :goods


Трекер:  [ 29-Дек-2013 13:35 ]

  

Скачать .torrent

Размер .torrent файла 97 KB


Размер: 2.41 GB
Хэш (hash) релиза: a1d1bd6921c93d1b4cb366d2b543b1606e39801a

Еще никто не оставлял запись к записи скачать торрент iamamiwhoami - kin . Будь первым!

!Обратная связь