Скачать через торрент музыку Triangle sun - Первый летний концерт в клубе 16тонн бесплатно без регистрации torrent

Если у вас наблюдаются проблемы со скриншотами, переходом по ссылками, скачиванием торрентов - проблемы в блокировщике рекламы AdBlock. #хорошегоДня!


Статистика раздачи
Размер:  6.51 GB   |    Зарегистрирован:  3 года 9 месяцев   |    .torrent скачан:  40 раз   |   
Раздают:  1  
   
Загрузка...
 
Автор Сообщение

Galfimbul

avatar Galfimbul


Triangle sun - Первый летний концерт в клубе 16тонн (9.06.2013)
Жанр: Lounge, Downtempo, Chillout,
Продолжительность: 00:57:32
Год выпуска: 2013
Страна: Россия
Описание:
9 июня в рамках проекта JAZZ UNIVERSE коллектив TRIANGLE SUN представил свой первый летний сольный концерт.
Triangle Sun (Треугольник Солнца) — известная российская группа, работающая в жанрах lounge и downtempo.
Их музыка часто звучит на светских мероприятиях, на волнах радио «JAZZ», «Relax FM».
Свои концерты группа дает в основном на музыкальных фестивалях, на частных мероприятиях и в закрытых ночных клубах, где собираются ценители живой электронной музыки.
Triangle Sun начали свое восхождение на музыкальную сцену в 2004 году. В этом же году они победили на российском фестивале Cafe Del Mar Lounge . После чего отправились завоевывать испанское побережье Ибицы, где играли свою музыку во всемирно известном Cafe Del Mar (Ibiza).
Таким образом, Triangle Sun стал первым российским коллективом, который вышел на серии сборников Cafe del Mar, а затем стал и первой русской группой, игравшей на фестивале Global Gathering 2007 в Лондоне.
Дополнительная инфа:

Пару-тройку песен не записала, песни пронумерованы так как записаны на видео.
Первые 25 секунд видео фокусировалась.
Видеофрагменты песен склеены.
Видеокамера не профессиональная, а любительская.
P.S.От себя хочу поблагодарить этот замечательный коллектив за концерт, который мне очень понравился. Получила море позитива. Спасибо ВАМ ВСЕМ ребята за вечер!
1. Flower Dance
2. Spaceship
3. Вeautiful
4. Stay
5. Summer Of Our Love
6. Harvest
7. Upside Down (Исполнена впервые)
8. Diamond
9. 100 Stars
10. You''ll Never Give Up
11. When The Rain Comes Falling Down
12. Beautiful (2013 Live Studio Mix)
13. Seed Becomes A Tree
Качество: HDCam
Контейнер: TS
Видео кодек: H.264
Аудио кодек: AC3
Видео: 1920*1080p, 15,0 Мбит/сек, 25,000 кадр/сек
Аудио: АС3, 448 Кбит/сек, 48,0 КГц, 6 каналов
ОбщееИдентификатор : 1 (0x1)Полное имя : E:\Мои фото и видео\Triangle Sun - 09.06.2013\Triangle Sun - 09.06.2013.tsФормат : MPEG-TSРазмер файла : 6,51 ГбайтПродолжительность : 57 м.Общий поток : 16,2 Мбит/секМаксимальный общий битрейт : 35,5 Мбит/сек

ВидеоИдентификатор : 4113 (0x1011)Идентификатор меню : 1 (0x1)Формат : AVCФормат/Информация : Advanced Video CodecПрофиль формата : High@L4.0Параметр CABAC формата : ДаПараметр ReFrames формата : 2 кадраПараметры GOP формата : M=1, N=26Идентификатор кодека : 27Продолжительность : 57 м.Вид битрейта : ПеременныйБитрейт : 15,0 Мбит/секМаксимальный битрейт : 16,0 Мбит/секШирина : 1920 пикс.Высота : 1080 пикс.Соотношение сторон : 16:9Частота кадров : 25,000 кадр/секЦветовое пространство : YUVПодвыборка цветности : 4:2:0Битовая глубина : 8 битТип развёртки : ЧересстрочнаяПорядок развёртки : Верхнее поле первоеБит/(Пиксели*Кадры) : 0.288Размер потока : 6,01 Гбайт (92%)

АудиоИдентификатор : 4352 (0x1100)Идентификатор меню : 1 (0x1)Формат : AC-3Формат/Информация : Audio Coding 3Расширение режима : CM (complete main)Идентификатор кодека : 129Продолжительность : 57 м.Вид битрейта : ПостоянныйБитрейт : 448 Кбит/секКаналы : 6 каналовРасположение каналов : Front: L C R, Side: L R, LFEЧастота : 48,0 КГцБитовая глубина : 16 битМетод сжатия : С потерямиРазмер потока : 184 Мбайт (3%)

ТекстИдентификатор : 4608 (0x1200)Идентификатор меню : 1 (0x1)Формат : PGSИдентификатор кодека : 144Продолжительность : 57 м.


Трекер:  [ 29-Дек-2013 13:35 ]

  

Скачать .torrent

Размер .torrent файла 16 KB


Размер: 6.51 GB
Хэш (hash) релиза: 3e44f06f2920128c8ae783196b719e6581d43d3a

Еще никто не оставлял запись к записи скачать торрент Triangle sun - Первый летний концерт в клубе 16тонн . Будь первым!

!Обратная связь