Скачать через торрент музыку Inna - JAdore бесплатно без регистрации torrent

Если у вас наблюдаются проблемы со скриншотами, переходом по ссылками, скачиванием торрентов - проблемы в блокировщике рекламы AdBlock. #хорошегоДня!


Статистика раздачи
Размер:  4.32 GB   |    Зарегистрирован:  3 года 9 месяцев   |    .torrent скачан:  72 раза   |   
Раздают:  1  
   
Загрузка...
 
Автор Сообщение

Galfimbul

avatar Galfimbul





Inna - J''Adore





Жанр: Pop
Продолжительность: 00:03:15
Год выпуска: 2012
Качество: Master
Контейнер: MOV (Apple QuickTime)
Видео: MPEG-4 / ProRes / 188 Mbps / 1080p / 25 fps / 16:9 / High Profile 0
Аудио: PCM, 2(ch) Front: L R, 48,0 kHz, 1536 Kbps



Format : MPEG-4Format profile : QuickTimeCodec ID : qtFile size : 4.32 GiBDuration : 3mn 15sOverall bit rate mode : VariableOverall bit rate : 190 MbpsEncoded date : UTC 2012-10-29 12:51:28Tagged date : UTC 2012-10-29 13:08:27Writing library : Apple QuickTime©TIM : 00:00:00:00©TSC : 25©TSZ : 1

VideoID : 1Format : ProResFormat version : Version 0Format profile : HighCodec ID : apchDuration : 3mn 15sBit rate mode : VariableBit rate : 188 MbpsWidth : 1 920 pixelsHeight : 1 080 pixelsDisplay aspect ratio : 16:9Frame rate mode : ConstantFrame rate : 25.000 fpsColor space : YUVChroma subsampling : 4:2:2Scan type : ProgressiveBits/(Pixel*Frame) : 3.633Stream size : 4.28 GiB (99%)Writing library : AppleLanguage : EnglishEncoded date : UTC 2012-10-29 12:51:28Tagged date : UTC 2012-10-29 13:08:27Color primaries : BT.709Transfer characteristics : BT.709Matrix coefficients : BT.709

AudioID : 2Format : PCMFormat settings, Endianness : LittleFormat settings, Sign : SignedCodec ID : sowtDuration : 3mn 15sSource duration : 3mn 15sBit rate mode : ConstantBit rate : 1 536 KbpsChannel(s) : 2 channelsChannel positions : Front: L RSampling rate : 48.0 KHzBit depth : 16 bitsStream size : 35.7 MiB (1%)Source stream size : 35.8 MiB (1%)Language : EnglishEncoded date : UTC 2012-10-29 12:51:28Tagged date : UTC 2012-10-29 13:08:27

MenuID : 3Duration : 3mn 15sLanguage : EnglishEncoded date : UTC 2012-10-29 13:08:27Tagged date : UTC 2012-10-29 13:08:27



Трекер:  [ 29-Дек-2013 13:35 ]

  

Скачать .torrent

Размер .torrent файла 22 KB


Размер: 4.32 GB
Хэш (hash) релиза: bb4323ac34a5f6232a921e2fc20fcc14e86ac138

Еще никто не оставлял запись к записи скачать торрент Inna - JAdore . Будь первым!

!Обратная связь