Скачать через торрент музыку Depeche Mode - 14 песен концерта в Киеве бесплатно без регистрации torrent

Если у вас наблюдаются проблемы со скриншотами, переходом по ссылками, скачиванием торрентов - проблемы в блокировщике рекламы AdBlock. #хорошегоДня!


Статистика раздачи
Размер:  5.4 GB   |    Зарегистрирован:  3 года 9 месяцев   |    .torrent скачан:  50 раз   |   
Раздают:  1  
   
Загрузка...
 
Автор Сообщение

Galfimbul

avatar Galfimbul


Depeche Mode - 14 песен концерта в Киеве (Delta Maсhine Tour, NSC "Olympiyskiy" 29.06.2013)

Жанр: Synthpop
Продолжительность: 1:18:22
Год выпуска: 2013

Режиссер: Becker

Треклист:
01 - Welcome To My World [6:37]
02 - Angel [4:15]
03 -Walking In My Shoes [6:43]
04 - Precious [5:17]
05 - Black Celebration [4:32]
06 - Policy Of Truth [5:29]
07 - Should Be Higher [5:59]
08 - Barrel Of A Gun [5:36]
09 - Higher Love [6:05]
10 - But Not Tonight [6:39]
11 - Heaven [5:18]
12 - Soothe My Soul [6:53]
13 - A Pain That I''m Used To [4:37]
14 - A Question Of Time [4:21]

Описание: Первые 14 песен концерта Depeche Mode в Киеве.

Доп. информация: Снято мыльницей Sony SyberShot DSC-H20 с 12го ряда 29го блока.
В нескольких местах - проблема с резкостью.
Очень неплохой звук.

Качество: HDCamRip
Контейнер: MP4
Видео кодек: DivX
Аудио кодек: AAC
Видео: MPEG4 Video 9338 Kbps (VBR) 1280x720 (16:9) 29,970 fps
Аудио: AAC 24000Hz mono 384kbps
Format : MPEG-4Format profile : Base Media / Version 2Codec ID : mp42File size : 438 MiBDuration : 6mn 37sOverall bit rate : 9 247 KbpsEncoded date : UTC 2013-06-29 09:21:03Tagged date : UTC 2013-06-29 09:21:03

VideoID : 1Format : MPEG-4 VisualFormat profile : Advanced Coding Efficiency@L4Format settings, BVOP : YesFormat settings, QPel : NoFormat settings, GMC : No warppointsFormat settings, Matrix : Default (H.263)Codec ID : 20Duration : 6mn 37sBit rate mode : VariableBit rate : 9 000 KbpsMaximum bit rate : 14.0 MbpsWidth : 1 280 pixelsHeight : 720 pixelsDisplay aspect ratio : 16:9Frame rate mode : ConstantFrame rate : 29.970 fpsColor space : YUVBit depth : 8 bitsScan type : ProgressiveCompression mode : LossyBits/(Pixel*Frame) : 0.326Stream size : 435 MiB (99%)Encoded date : UTC 2013-06-29 20:12:34Tagged date : UTC 2013-06-29 09:21:04

AudioID : 2Format : AACFormat/Info : Advanced Audio CodecFormat profile : LCCodec ID : 40Duration : 6mn 37sBit rate mode : ConstantBit rate : 64.0 KbpsChannel(s) : 1 channelChannel positions : Front: CSampling rate : 24.0 KHzCompression mode : LossyStream size : 3.03 MiB (1%)Encoded date : UTC 2013-06-29 20:12:34Tagged date : UTC 2013-06-29 09:21:04


Трекер:  [ 29-Дек-2013 13:35 ]

  

Скачать .torrent

Размер .torrent файла 15 KB


Размер: 5.4 GB
Хэш (hash) релиза: e1451c4f74754641c8fc9c2e3a1ddb1f7c80dde9

Еще никто не оставлял запись к записи скачать торрент Depeche Mode - 14 песен концерта в Киеве . Будь первым!

!Обратная связь