Скачать через торрент музыку Chvrches • Live @ Arte Introducing бесплатно без регистрации torrent

Если у вас наблюдаются проблемы со скриншотами, переходом по ссылками, скачиванием торрентов - проблемы в блокировщике рекламы AdBlock. #хорошегоДня!


Статистика раздачи
Размер:  1.89 GB   |    Зарегистрирован:  3 года 9 месяцев   |    .torrent скачан:  41 раз   |   
Раздают:  1  
   
Загрузка...
 
Автор Сообщение

Galfimbul

avatar Galfimbul


Chvrches
• Live @ ARTE Introducing •
Lido, Berlin, Germany, 2013-05-17





Жанр: Electronic, synthpop
Продолжительность: 00:23:55
Год выпуска: Broadcast on arte HD on 2013-06-29
CHVRCHES (ранее известные как Churches) — шотландская альтернативная электропоп-группа из Глазго, созданная в 2011 году. Группа состоит из Lauren Mayberry (вокал), Iain Cook (синтезатор) и Martin Doherty (синтезаторы). Ранее Mayberry была вокалисткой Blue Sky Archives, Cook был членом Aereogramme. Группа начала работать в октябре 2011 года как студийный проект.
Lauren Mayberry - lead vocals, additional synthesizers
Iain Cook - synthesizers, guitar, vocals
Martin Doherty - synthesizers, vocals

01. Lies
02. Sink
03. Now Is Not The Time
04. Science
05. Recover
06. Mother
Качество: HDTV 720p
Контейнер: TS
Видео кодек: H.264
Аудио кодек: MP2
Видео: MPEG4 Video (H264) 1280x720 50fps 9864 Kbps
Аудио 1: MPEG Audio 48000Hz stereo 192kbps German
Аудио 2: MPEG Audio 48000Hz stereo 192kbps French
Аудио 3: Dolby AC3 48000Hz 6ch 448kbps Multiple languages
GeneralID : 1019 (0x3FB)Complete name : E:\Chvrches - Live @ ARTE Introducing.tsFormat : MPEG-TSFile size : 1.89 GiBDuration : 24mn 1sOverall bit rate mode : VariableOverall bit rate : 11.3 Mbps

VideoID : 5111 (0x13F7)Menu ID : 10302 (0x283E)Format : AVCFormat/Info : Advanced Video CodecFormat profile : High@L3.2Format settings, CABAC : YesFormat settings, ReFrames : 4 framesCodec ID : 27Duration : 24mn 1sBit rate : 9 864 KbpsWidth : 1 280 pixelsHeight : 720 pixelsDisplay aspect ratio : 16:9Frame rate : 50.000 fpsColor space : YUVChroma subsampling : 4:2:0Bit depth : 8 bitsScan type : ProgressiveBits/(Pixel*Frame) : 0.214Stream size : 1.66 GiB (88%)

Audio #1ID : 5112 (0x13F8)Menu ID : 10302 (0x283E)Format : MPEG AudioFormat version : Version 1Format profile : Layer 2Codec ID : 3Duration : 24mn 1sBit rate mode : ConstantBit rate : 192 KbpsChannel(s) : 2 channelsSampling rate : 48.0 KHzCompression mode : LossyDelay relative to video : 13msStream size : 33.0 MiB (2%)Language : German

Audio #2ID : 5113 (0x13F9)Menu ID : 10302 (0x283E)Format : MPEG AudioFormat version : Version 1Format profile : Layer 2Codec ID : 3Duration : 24mn 1sBit rate mode : ConstantBit rate : 192 KbpsChannel(s) : 2 channelsSampling rate : 48.0 KHzCompression mode : LossyDelay relative to video : 13msStream size : 33.0 MiB (2%)Language : French

Audio #3ID : 5116 (0x13FC)Menu ID : 10302 (0x283E)Format : AC-3Format/Info : Audio Coding 3Mode extension : CM (complete main)Format settings, Endianness : BigCodec ID : 6Duration : 24mn 1sBit rate mode : ConstantBit rate : 448 KbpsChannel(s) : 6 channelsChannel positions : Front: L C R, Side: L R, LFESampling rate : 48.0 KHzBit depth : 16 bitsCompression mode : LossyDelay relative to video : 34msStream size : 77.0 MiB (4%)Language : Multiple languages


Трекер:  [ 29-Дек-2013 13:35 ]

  

Скачать .torrent

Размер .torrent файла 19 KB


Размер: 1.89 GB
Хэш (hash) релиза: 3c3b9758909e0b8c5f0bb1dae8ed8018543afeab

Еще никто не оставлял запись к записи скачать торрент Chvrches • Live @ Arte Introducing . Будь первым!

!Обратная связь