Скачать через торрент музыку Inna - Caliente бесплатно без регистрации torrent

Если у вас наблюдаются проблемы со скриншотами, переходом по ссылками, скачиванием торрентов - проблемы в блокировщике рекламы AdBlock. #хорошегоДня!


Статистика раздачи
Размер:  4.31 GB   |    Зарегистрирован:  3 года 9 месяцев   |    .torrent скачан:  63 раза   |   
Раздают:  1  
   
Загрузка...
 
Автор Сообщение

Galfimbul

avatar Galfimbul





Inna - Caliente





Жанр: Pop, Dance
Продолжительность: 00:03:28
Год выпуска: 2012
Качество: Master
Контейнер: MOV (Apple QuickTime)
Видео: MPEG-4 / ProRes / 172 Mbps / 1080p / 23.976 fps / 16:9 / High Profile 0
Аудио #1: PCM, 2(ch) Front: L R, 48,0 kHz, 2304 Kbps
Аудио #2: ALAC, 2(ch) Front: L R, 48,0 kHz, 1654 Kbps
Аудио #3: DTS, 2(ch) Front: L R, 48,0 kHz, 1509 Kbps




Format : MPEG-4Format profile : QuickTimeCodec ID : qtFile size : 4.31 GiBDuration : 3mn 28sOverall bit rate mode : VariableOverall bit rate : 177 MbpsWriting application : Lavf55.16.101

VideoID : 1Format : ProResFormat version : Version 0Codec ID : ap4hDuration : 3mn 28sDuration_FirstFrame : 110msDuration_LastFrame : 110msBit rate mode : VariableBit rate : 172 MbpsWidth : 1 920 pixelsHeight : 1 080 pixelsDisplay aspect ratio : 16:9Frame rate mode : ConstantFrame rate : 23.976 fpsColor space : YUVChroma subsampling : 4:2:2Scan type : ProgressiveBits/(Pixel*Frame) : 3.455Stream size : 4.17 GiB (97%)Writing library : AppleLanguage : EnglishMatrix coefficients : BT.709

Audio #1ID : 2Format : PCMFormat settings, Endianness : LittleFormat settings, Sign : UnsignedCodec ID : in24Duration : 3mn 28sSource duration : 3mn 28sBit rate mode : ConstantBit rate : 2 304 KbpsChannel(s) : 2 channelsChannel positions : Front: L RSampling rate : 48.0 KHzBit depth : 24 bitsStream size : 57.3 MiB (1%)Source stream size : 57.4 MiB (1%)Language : Englishmdhd_Duration : 208727

Audio #2ID : 3Format : ALACCodec ID : alacCodec ID/Info : Apple Lossless Audio CodecDuration : 3mn 28sDuration_LastFrame : -59msBit rate mode : VariableBit rate : 1 654 KbpsChannel(s) : 2 channelsChannel positions : Front: L RSampling rate : 48.0 KHzBit depth : 16 bitsStream size : 41.2 MiB (1%)Language : English

Audio #3ID : 4Format : DTSFormat/Info : Digital Theater SystemsCodec ID : dtscCodec ID/Info : Digital Theater SystemsDuration : 3mn 28sBit rate mode : ConstantBit rate : 1 509 KbpsChannel(s) : 2 channelsChannel positions : Front: L RSampling rate : 48.0 KHzBit depth : 16 bitsCompression mode : LossyStream size : 37.6 MiB (1%)Language : English

MenuID : 5Duration : 3mn 28sLanguage : English



Трекер:  [ 29-Дек-2013 13:34 ]

  

Скачать .torrent

Размер .torrent файла 22 KB


Размер: 4.31 GB
Хэш (hash) релиза: f903a3e8875f3f6f7072c7f0aeec7a3361f85402

Торренты, похожие на Inna - Caliente скачать торрент

Форум Название Автор Размер S L Добавлен
Электронная музыка ·· Inna - Caliente Es Tu Amor / Inna - Caliente Es Tu Amor [2012, Dance, HDTVRip] Leito57 151289075144 MB 0 0 1340956620

10:57

29-Июн-12

Еще никто не оставлял запись к записи скачать торрент Inna - Caliente . Будь первым!

!Обратная связь