Скачать через торрент музыку David Guetta - Rock In Rio V бесплатно без регистрации torrent

Если у вас наблюдаются проблемы со скриншотами, переходом по ссылками, скачиванием торрентов - проблемы в блокировщике рекламы AdBlock. #хорошегоДня!


Статистика раздачи
Размер:  1.72 GB   |    Зарегистрирован:  3 года 9 месяцев   |    .torrent скачан:  45 раз   |   
Раздают:  1  
   
Загрузка...
 
Автор Сообщение

Galfimbul

avatar Galfimbul


David Guetta - Rock In Rio V

Жанр: Electro House
Продолжительность: 52:34
Год выпуска: 2013

Описание:

01. Play Hard
02. Ain''t A Party
03. Song 2 (Blur cover)
04. I Love It
05. Sexy Bitch
06. Memories
07. When Love Takes Over
08. I Need Your Love (Calvin Harris cover)
09. Titanium
10. Just One Last Time
11. Locked Out of Heaven (Bruno Mars cover)
12. Wake Me Up
13. Without You
14. Play Hard

Качество: HDTV 720p
Контейнер: MKV
Видео кодек: H.264
Аудио кодек: AC3
Видео: AVC (H.264), 1280x720, 16:9, 29,970 кадров/сек, 4000 Кбит/сек
Аудио: AC-3, 48.0 КГц, 256 Кбит/сек, 2 канала
Аудио 2: AC-3, 48.0 КГц, 448 Кбит/сек, 6 каналов
ОбщееУникальный идентификатор : 245300622765535033327492094586500070865 (0xB88B2E7537B26F36A92A7F341296BDD1)Формат : MatroskaВерсия формата : Version 4 / Version 2Размер файла : 1,72 ГбайтПродолжительность : 52 м.Общий поток : 4685 Кбит/секДата кодирования : UTC 2013-09-14 07:25:25Программа кодирования : mkvmerge v6.3.0 (''You can''t stop me!'') built on Jun 28 2013 20:09:41Библиотека кодирования : libebml v1.3.0 + libmatroska v1.4.0

ВидеоИдентификатор : 1Формат : AVCФормат/Информация : Advanced Video CodecПрофиль формата : High@L4.1Параметр CABAC формата : ДаПараметр ReFrames формата : 4 кадраИдентификатор кодека : V_MPEG4/ISO/AVCПродолжительность : 52 м.Битрейт : 4000 Кбит/секШирина : 1280 пикселейВысота : 720 пикселейСоотношение сторон : 16:9Режим частоты кадров : ПостоянныйЧастота кадров : 29,970 кадров/секЦветовое пространство : YUVСубдискретизация насыщенности : 4:2:0Битовая глубина : 8 битТип развёртки : ПрогрессивнаяБит/(Пиксели*Кадры) : 0.145Размер потока : 1,43 Гбайт (83%)Библиотека кодирования : x264 core 130 r2273 b3065e6Настройки программы : cabac=1 / ref=2 / deblock=1:-1:-1 / analyse=0x3:0x113 / me=hex / subme=6 / psy=1 / psy_rd=1.00:0.15 / mixed_ref=1 / me_range=16 / chroma_me=1 / trellis=1 / 8x8dct=1 / cqm=0 / deadzone=21,11 / fast_pskip=1 / chroma_qp_offset=-3 / threads=6 / lookahead_threads=1 / sliced_threads=0 / nr=0 / decimate=1 / interlaced=0 / bluray_compat=0 / constrained_intra=0 / bframes=3 / b_pyramid=2 / b_adapt=1 / b_bias=0 / direct=1 / weightb=1 / open_gop=0 / weightp=1 / keyint=300 / keyint_min=30 / scenecut=40 / intra_refresh=0 / rc_lookahead=30 / rc=abr / mbtree=1 / bitrate=4000 / ratetol=1.0 / qcomp=0.60 / qpmin=0 / qpmax=69 / qpstep=4 / vbv_maxrate=62500 / vbv_bufsize=78125 / nal_hrd=none / ip_ratio=1.40 / aq=1:1.00Язык : EnglishDefault : ДаForced : НетОсновные цвета : BT.709Характеристики трансфера : BT.709Коэффициенты матрицы : BT.709

Аудио #1Идентификатор : 2Формат : AC-3Формат/Информация : Audio Coding 3Расширение режима : CM (complete main)Параметр Endianness формата : BigИдентификатор кодека : A_AC3Продолжительность : 52 м.Вид битрейта : ПостоянныйБитрейт : 256 Кбит/секКаналы : 2 каналаРасположение каналов : Front: L RЧастота : 48,0 КГцБитовая глубина : 16 битМетод сжатия : С потерямиРазмер потока : 96,3 Мбайт (5%)Default : ДаForced : Нет

Аудио #2Идентификатор : 3Формат : AC-3Формат/Информация : Audio Coding 3Расширение режима : CM (complete main)Параметр Endianness формата : BigИдентификатор кодека : A_AC3Продолжительность : 52 м.Вид битрейта : ПостоянныйБитрейт : 448 Кбит/секКаналы : 6 каналовРасположение каналов : Front: L C R, Side: L R, LFEЧастота : 48,0 КГцБитовая глубина : 16 битМетод сжатия : С потерямиЗадержка видео : 327 мс.Размер потока : 168 Мбайт (10%)Default : НетForced : Нет


Трекер:  [ 29-Дек-2013 13:34 ]

  

Скачать .torrent

Размер .torrent файла 17 KB


Размер: 1.72 GB
Хэш (hash) релиза: 9b9c3b5d2b4402c394dc1abd7394bd6a5fc4f949

Еще никто не оставлял запись к записи скачать торрент David Guetta - Rock In Rio V . Будь первым!

!Обратная связь