Скачать через торрент музыку Roman Voronov - Synthem EP Videos бесплатно без регистрации torrent

Если у вас наблюдаются проблемы со скриншотами, переходом по ссылками, скачиванием торрентов - проблемы в блокировщике рекламы AdBlock. #хорошегоДня!


Статистика раздачи
Размер:  550 MB   |    Зарегистрирован:  3 года 9 месяцев   |    .torrent скачан:  36 раз   |   
Раздают:  1  
   
Загрузка...
 
Автор Сообщение

Galfimbul

avatar Galfimbul


Roman Voronov "Synthem EP" Videos 2013

Жанр: Synthpop
Продолжительность: 00:05:40
Год выпуска: 2013

Описание: Видео из альбома "Synthem EP"

Доп. информация: 01. Synthem 02. Smell of the Sun

Качество: Master
Контейнер: MP4
Видео кодек: AVC
Аудио кодек: AAC
Видео: PAL 1920x1080 13.3 Mbps 25.000 fps
Аудио: AAC 192Kbps 48kHz 2 channels
GeneralComplete name : C:Roman Voronov - Smell of the Sun 2013.mp4Format : MPEG-4Format profile : Base MediaCodec ID : isomFile size : 358 MiBDuration : 3mn 42sOverall bit rate mode : VariableOverall bit rate : 13.5 MbpsEncoded date : UTC 2013-09-21 11:38:41Tagged date : UTC 2013-09-21 11:38:41

VideoID : 1Format : AVCFormat/Info : Advanced Video CodecFormat profile : High@L4.0Format settings, CABAC : YesFormat settings, ReFrames : 2 framesFormat settings, GOP : M=3, N=12Codec ID : avc1Codec ID/Info : Advanced Video CodingDuration : 3mn 42sBit rate mode : VariableBit rate : 13.3 MbpsMaximum bit rate : 15.0 MbpsWidth : 1 920 pixelsHeight : 1 080 pixelsDisplay aspect ratio : 16:9Frame rate mode : ConstantFrame rate : 25.000 fpsStandard : PALColor space : YUVChroma subsampling : 4:2:0Bit depth : 8 bitsScan type : ProgressiveBits/(Pixel*Frame) : 0.256Stream size : 353 MiB (99%)Language : EnglishEncoded date : UTC 2013-09-21 11:38:41Tagged date : UTC 2013-09-21 11:38:41Color primaries : BT.709Transfer characteristics : BT.709Matrix coefficients : BT.709

AudioID : 2Format : AACFormat/Info : Advanced Audio CodecFormat profile : LCCodec ID : 40Duration : 3mn 42sBit rate mode : ConstantBit rate : 192 KbpsChannel(s) : 2 channelsChannel positions : Front: L RSampling rate : 48.0 KHzCompression mode : LossyStream size : 5.11 MiB (1%)Language : EnglishEncoded date : UTC 2013-09-21 11:38:41Tagged date : UTC 2013-09-21 11:38:41


Трекер:  [ 29-Дек-2013 13:34 ]

  

Скачать .torrent

Размер .torrent файла 22 KB


Размер: 550 MB
Хэш (hash) релиза: d6744ff293787f614f40bd731abb7b6ca37970ce

Еще никто не оставлял запись к записи скачать торрент Roman Voronov - Synthem EP Videos . Будь первым!

!Обратная связь