Скачать через торрент музыку Kerli - Army of Love бесплатно без регистрации torrent

Если у вас наблюдаются проблемы со скриншотами, переходом по ссылками, скачиванием торрентов - проблемы в блокировщике рекламы AdBlock. #хорошегоДня!


Статистика раздачи
Размер:  2.6 GB   |    Зарегистрирован:  3 года 9 месяцев   |    .torrent скачан:  47 раз   |   
Раздают:  1  
   
Загрузка...
 
Автор Сообщение

Galfimbul

avatar Galfimbul


Kerli - Army of Love



Жанр: Dance / Synthpop
Продолжительность: 00:04:20
Год выпуска: 2010

Качество: MasterRip 720p
Контейнер: MOV
Видео кодек: Apple ProRes
Аудио кодек: PCM
Видео: APCH 1280x720 25fps 84.3Mbps
Аудио: PCM 48000Hz stereo 1536kbps
ОбщееПолное имя : Kerli - Army of Love [MasterRip 720p].movФормат : MPEG-4Профиль формата : QuickTimeИдентификатор кодека : qtРазмер файла : 2,60 ГбайтПродолжительность : 4 м. 20 с.Режим общего битрейта : ПеременныйОбщий поток : 85,8 Мбит/секДата кодирования : UTC 2010-12-21 10:51:16Дата пометки : UTC 2010-12-21 10:53:06Библиотека кодирования : Apple QuickTimeMedia/UUID : 3873B6FC-C229-49F9-A814-6AEC4E57AD09

ВидеоИдентификатор : 1Формат : ProResВерсия формата : Version 0Профиль формата : HighИдентификатор кодека : apchПродолжительность : 4 м. 20 с.Вид битрейта : ПеременныйБитрейт : 84,3 Мбит/секШирина : 1280 пикселейВысота : 720 пикселейСоотношение сторон : 16:9Режим частоты кадров : ПостоянныйЧастота кадров : 25,000 кадров/секЦветовое пространство : YUVСубдискретизация насыщенности : 4:2:2Тип развёртки : ПрогрессивнаяБит/(Пиксели*Кадры) : 3.658Размер потока : 2,55 Гбайт (98%)Библиотека кодирования : AppleЯзык : EnglishДата кодирования : UTC 2010-12-21 10:51:16Дата пометки : UTC 2010-12-21 10:53:06Основные цвета : BT.709Характеристики трансфера : BT.709Коэффициенты матрицы : BT.709

АудиоИдентификатор : 2Формат : PCMПараметр Endianness формата : LittleПараметр Sign формата : SignedИдентификатор кодека : sowtПродолжительность : 4 м. 20 с.Вид битрейта : ПостоянныйБитрейт : 1536 Кбит/секКаналы : 2 каналаРасположение каналов : Front: L RЧастота : 48,0 КГцБитовая глубина : 16 битРазмер потока : 47,7 Мбайт (2%)Язык : EnglishДата кодирования : UTC 2010-12-21 10:51:16Дата пометки : UTC 2010-12-21 10:53:05

МенюИдентификатор : 3Продолжительность : 4 м. 20 с.Язык : EnglishДата кодирования : UTC 2010-12-21 10:53:05Дата пометки : UTC 2010-12-21 10:53:06


Трекер:  [ 29-Дек-2013 13:34 ]

  

Скачать .torrent

Размер .torrent файла 13 KB


Размер: 2.6 GB
Хэш (hash) релиза: 76090d64769f034abb6116bc3495312146ff9f26

Еще никто не оставлял запись к записи скачать торрент Kerli - Army of Love . Будь первым!

!Обратная связь