Скачать через торрент музыку David Guetta Feat. Sia - She Wolf бесплатно без регистрации torrent

Если у вас наблюдаются проблемы со скриншотами, переходом по ссылками, скачиванием торрентов - проблемы в блокировщике рекламы AdBlock. #хорошегоДня!


Статистика раздачи
Размер:  2.68 GB   |    Зарегистрирован:  3 года 9 месяцев   |    .torrent скачан:  54 раза   |   
Раздают:  1  
   
Загрузка...
 
Автор Сообщение

Galfimbul

avatar Galfimbul


David Guetta Feat. Sia - She Wolf (Falling to Pieces)



Жанр: Electro house / Electronic dance / Electronic rock
Продолжительность: 00:04:00
Год выпуска: 2012

Качество: Master
Контейнер: MOV
Видео кодек: H.264
Аудио кодек: PCM
Видео: MPEG4 Video (H264) 1920x750 23.976fps 94.1Mbps
Аудио: PCM 48000Hz stereo 1536kbps
ОбщееПолное имя : David Guetta Feat. Sia - She Wolf (Falling to Pieces) [Master].movФормат : MPEG-4Профиль формата : QuickTimeИдентификатор кодека : qtРазмер файла : 2,68 ГбайтПродолжительность : 4 м. 0 с.Режим общего битрейта : ПеременныйОбщий поток : 95,6 Мбит/секДата кодирования : UTC 2013-01-20 04:51:00Дата пометки : UTC 2013-01-20 05:02:43Библиотека кодирования : Apple QuickTime©TIM : 00:01:15:01©TSC : 2997©TSZ : 125

ВидеоИдентификатор : 1Формат : AVCФормат/Информация : Advanced Video CodecПрофиль формата : Main@L5.1Параметр CABAC формата : НетПараметр ReFrames формата : 2 кадраПараметр GOP формата : N=1Идентификатор кодека : avc1Идентификатор кодека/Информация : Advanced Video CodingПродолжительность : 4 м. 0 с.Вид битрейта : ПеременныйБитрейт : 94,1 Мбит/секШирина : 1920 пикселейВысота : 750 пикселейСоотношение сторон : 2,560Режим частоты кадров : ПостоянныйЧастота кадров : 23,976 кадра/секЦветовое пространство : YUVСубдискретизация насыщенности : 4:2:0Битовая глубина : 8 битТип развёртки : ПрогрессивнаяБит/(Пиксели*Кадры) : 2.724Размер потока : 2,63 Гбайт (98%)Язык : EnglishДата кодирования : UTC 2013-01-20 04:51:00Дата пометки : UTC 2013-01-20 05:02:43Основные цвета : BT.709Характеристики трансфера : BT.709Коэффициенты матрицы : BT.709

АудиоИдентификатор : 2Формат : PCMПараметр Endianness формата : LittleПараметр Sign формата : SignedИдентификатор кодека : sowtПродолжительность : 4 м. 0 с.Продолжительность оригинала : 4 м. 0 с.Вид битрейта : ПостоянныйБитрейт : 1536 Кбит/секКаналы : 2 каналаРасположение каналов : Front: L RЧастота : 48,0 КГцБитовая глубина : 16 битРазмер потока : 44,0 Мбайт (2%)Размер потока оригинала : 44,1 Мбайт (2%)Язык : EnglishДата кодирования : UTC 2013-01-20 04:51:00Дата пометки : UTC 2013-01-20 05:02:43

МенюИдентификатор : 3Продолжительность : 4 м. 0 с.Язык : EnglishДата кодирования : UTC 2013-01-20 05:02:43Дата пометки : UTC 2013-01-20 05:02:43


Трекер:  [ 29-Дек-2013 13:34 ]

  

Скачать .torrent

Размер .torrent файла 14 KB


Размер: 2.68 GB
Хэш (hash) релиза: 5ad4f29b9a37bd6942efec2f39360c1822375789

Торренты, похожие на David Guetta Feat. Sia - She Wolf скачать торрент

Форум Название Автор Размер S L Добавлен
Электронная музыка ·· (Electro House) David Guetta feat. Sia - She Wolf (Falling To Pieces) ( What A Music [WAM002]) (WEB) - 2012, FLAC (tracks), lossless Umakiro 126087279120 MB 0 0 1345201680

14:08

17-Авг-12

Еще никто не оставлял запись к записи скачать торрент David Guetta Feat. Sia - She Wolf . Будь первым!

!Обратная связь