Скачать через торрент музыку Paris Hilton - Good Time бесплатно без регистрации torrent

Если у вас наблюдаются проблемы со скриншотами, переходом по ссылками, скачиванием торрентов - проблемы в блокировщике рекламы AdBlock. #хорошегоДня!


Статистика раздачи
Размер:  439 MB   |    Зарегистрирован:  3 года 9 месяцев   |    .torrent скачан:  105 раз   |   
Раздают:  1  
   
Загрузка...
 
Автор Сообщение

Galfimbul

avatar Galfimbul


Paris Hilton - Good Time (Explicit)
[ft. Lil Wayne]




Жанр: Electronic dance / House / Hip Hop
Продолжительность: 00:03:46
Год выпуска: 2013

Качество: MasterRip 1080p
Контейнер: MOV
Видео кодек: H.264
Аудио кодек: AAC
Видео: MPEG4 Video (H264) 1920x1080p (1888x1062) 23.976fps 16.0Mbps
Аудио: AAC 48000Hz stereo 320kbps
ОбщееПолное имя : Paris Hilton - Good Time (Explicit) [ft. Lil Wayne] [MasterRip 1080p].movФормат : MPEG-4Профиль формата : QuickTimeИдентификатор кодека : qtРазмер файла : 439 МбайтПродолжительность : 3 м. 46 с.Режим общего битрейта : ПеременныйОбщий поток : 16,3 Мбит/секДата кодирования : UTC 2013-10-08 21:26:21Дата пометки : UTC 2013-10-08 21:26:29Библиотека кодирования : Apple QuickTimeMedia/UUID : 3A74838F-EF86-4F40-9DCC-9C464603DD4BMedia/History/UUID : 3A794797-8DA4-4B3D-8D36-E4C0F8633416

ВидеоИдентификатор : 1Формат : AVCФормат/Информация : Advanced Video CodecПрофиль формата : Main@L4.1Параметр CABAC формата : НетПараметр ReFrames формата : 2 кадраИдентификатор кодека : avc1Идентификатор кодека/Информация : Advanced Video CodingПродолжительность : 3 м. 46 с.Вид битрейта : ПеременныйБитрейт : 16,0 Мбит/секМаксимальный битрейт : 20,5 Мбит/секШирина : 1888 пикселейШирина оригинала : 1920 пикселейВысота : 1062 пикселяВысота оригинала : 1080 пикселейСоотношение сторон : 16:9Режим частоты кадров : ПостоянныйЧастота кадров : 23,976 кадра/секЦветовое пространство : YUVСубдискретизация насыщенности : 4:2:0Битовая глубина : 8 битТип развёртки : ПрогрессивнаяБит/(Пиксели*Кадры) : 0.332Размер потока : 431 Мбайт (98%)Язык : EnglishДата кодирования : UTC 2013-10-08 21:26:21Дата пометки : UTC 2013-10-08 21:26:29Основные цвета : BT.709Характеристики трансфера : BT.709Коэффициенты матрицы : BT.709

АудиоИдентификатор : 2Формат : AACФормат/Информация : Advanced Audio CodecПрофиль формата : LCИдентификатор кодека : 40Продолжительность : 3 м. 46 с.Продолжительность оригинала : 3 м. 46 с.Вид битрейта : ПостоянныйБитрейт : 298 Кбит/секНоминальный битрейт : 320 Кбит/секКаналы : 2 каналаРасположение каналов : Front: L RЧастота : 48,0 КГцМетод сжатия : С потерямиРазмер потока : 8,06 Мбайт (2%)Размер потока оригинала : 8,06 Мбайт (2%)Язык : EnglishДата кодирования : UTC 2013-10-08 21:26:21Дата пометки : UTC 2013-10-08 21:26:29

МенюИдентификатор : 3Продолжительность : 3 м. 46 с.Язык : EnglishДата кодирования : UTC 2013-10-08 21:26:21Дата пометки : UTC 2013-10-08 21:26:29


Трекер:  [ 29-Дек-2013 13:34 ]

  

Скачать .torrent

Размер .torrent файла 17 KB


Размер: 439 MB
Хэш (hash) релиза: 873a155a9ee9822ae3dca26e9414700b47c70cbc

Еще никто не оставлял запись к записи скачать торрент Paris Hilton - Good Time . Будь первым!

!Обратная связь