Скачать через торрент музыку The Prodigy - Live @ Kubana 2013 бесплатно без регистрации torrent

Если у вас наблюдаются проблемы со скриншотами, переходом по ссылками, скачиванием торрентов - проблемы в блокировщике рекламы AdBlock. #хорошегоДня!


Статистика раздачи
Размер:  3.65 GB   |    Зарегистрирован:  3 года 9 месяцев   |    .torrent скачан:  46 раз   |   
Раздают:  1  
   
Загрузка...
 
Автор Сообщение

Galfimbul

avatar Galfimbul


The Prodigy - Live @ Kubana 2013

Жанр: Breakbeat
Продолжительность: 00:33:07
Год выпуска: 2013

Описание: Запись выступления английской группы The Prodigy на юбилейном фестивале Kubana, прошедшем в станице Благовещенская в августе 2013 года.
Песни отснял не все, поэтому треклист не полный.
Треклист:
AWOL
Firestarter
Run With the Wolves
Smack my bitch up
Take me to the hospital
New beats
Their Law
Hyperspeed
Out Of Space
Доп. информация: Снято недалеко от фан-зоны на телефон, из-за чего картинка иногда трясется во все стороны.
Fps и битрейт непостоянные, в описании указны минимальные значения. Качество: HDCamRip
Контейнер: MP4
Видео кодек: H.264
Видео: AVC, 1920x1080, 12.6Mbps, 24fps
Аудио: AAC, 192Kbps, 48.0 KHz,2Ch
Complete name : The Prodigy @ Kubana 2013\VIDEO0031 Prodigy AWOL.mp4Format : MPEG-4Format profile : Base MediaCodec ID : isomFile size : 151 MiBDuration : 1mn 39sOverall bit rate : 12.7 MbpsEncoded date : UTC 2013-08-04 20:22:59Tagged date : UTC 2013-08-04 20:22:59

VideoID : 1Format : AVCFormat/Info : Advanced Video CodecFormat profile : High@L4.0Format settings, CABAC : YesFormat settings, ReFrames : 1 frameFormat settings, GOP : M=1, N=60Codec ID : avc1Codec ID/Info : Advanced Video CodingDuration : 1mn 39sBit rate : 12.6 MbpsWidth : 1 920 pixelsHeight : 1 080 pixelsDisplay aspect ratio : 16:9Frame rate mode : VariableFrame rate : 17.839 fpsMinimum frame rate : 16.984 fpsMaximum frame rate : 30.030 fpsColor space : YUVChroma subsampling : 4:2:0Bit depth : 8 bitsScan type : ProgressiveBits/(Pixel*Frame) : 0.340Stream size : 149 MiB (98%)Title : VideoHandleLanguage : EnglishEncoded date : UTC 2013-08-04 20:22:59Tagged date : UTC 2013-08-04 20:22:59

AudioID : 2Format : AACFormat/Info : Advanced Audio CodecFormat profile : LCCodec ID : 40Duration : 1mn 39sBit rate mode : ConstantBit rate : 192 KbpsNominal bit rate : 96.0 KbpsChannel(s) : 2 channelsChannel positions : Front: L RSampling rate : 48.0 KHzCompression mode : LossyStream size : 2.27 MiB (2%)Title : SoundHandleLanguage : EnglishEncoded date : UTC 2013-08-04 20:22:59Tagged date : UTC 2013-08-04 20:22:59Material_Duration : 99726Material_StreamSize : 2378722


Трекер:  [ 29-Дек-2013 13:33 ]

  

Скачать .torrent

Размер .torrent файла 19 KB


Размер: 3.65 GB
Хэш (hash) релиза: b565619d63936a6265e696d24a7e0ee7334a0183

Торренты, похожие на The Prodigy - Live @ Kubana 2013 скачать торрент

Форум Название Автор Размер S L Добавлен
Электронная музыка (video) ·· The Prodigy - Live @ Kubana 2013 [2013 г., Breakbeat, Big beat, CAMRip] Galfimbul 42696302053.98 GB 0 0 1388311296

13:01

29-Дек-13

Еще никто не оставлял запись к записи скачать торрент The Prodigy - Live @ Kubana 2013 . Будь первым!

!Обратная связь