Скачать через торрент музыку Sebastien Tellier - Live At Pitchfork Paris Festival 2012 бесплатно без регистрации torrent

Если у вас наблюдаются проблемы со скриншотами, переходом по ссылками, скачиванием торрентов - проблемы в блокировщике рекламы AdBlock. #хорошегоДня!


Статистика раздачи
Размер:  3.48 GB   |    Зарегистрирован:  3 года 9 месяцев   |    .torrent скачан:  40 раз   |   
Раздают:  1  
   
Загрузка...
 
Автор Сообщение

Galfimbul

avatar Galfimbul


Sebastien Tellier - Live At Pitchfork Paris Festival 2012

Жанр: electronic-pop
Продолжительность: 00:53:51
Год выпуска: 2012

Описание:
Sebastien Tellier - Live At Pitchfork Paris Festival 2012
Filmed at La Grande Halle de la Villette, Paris, november 2012

= Треклист =
1. Pepito Bleu
2. Russian Attractions
3. Fingers Of Steel
4. Roche
5. Divine
6. Sexual Sportswear
7. La Ritournelle
8. L''Amour Et La Violence


Качество: HDTVRip 1080p
Контейнер: MPEG-4
Видео кодек: H.264
Аудио кодек: AAC
Видео: 1920x1080 (16:9), 25.00 fps, AVC, 8852 Кбит, 0.170 bits/pixel
Аудио: 48.0 KHz, AAC-LC, 2 ch, stereo, ~128 Kbps VBR
Полное имя : G:\DVD\Sebastien Tellier - LaPP (2012)\Sebastien Tellier - Live At Pitchfork Paris Festival.mp4Формат : MPEG-4Профиль формата : Base Media / Version 2Идентификатор кодека : mp42Размер файла : 3,48 ГбайтПродолжительность : 53 м.Общий поток : 9240 Кбит/секДата кодирования : UTC 2013-10-24 05:03:07Дата пометки : UTC 2013-10-24 05:03:07

ВидеоИдентификатор : 2Формат : AVCФормат/Информация : Advanced Video CodecПрофиль формата : Main@L4.0Параметр CABAC формата : ДаПараметр ReFrames формата : 2 кадраИдентификатор кодека : avc1Идентификатор кодека/Информация : Advanced Video CodingПродолжительность : 53 м.Вид битрейта : ПеременныйБитрейт : 8852 Кбит/секМаксимальный битрейт : 9001 Кбит/секШирина : 1920 пикселейВысота : 1088 пикселейВысота оригинала : 1080 пикселейСоотношение сторон : 16:9Соотношение сторон в оригинале : 16:9Режим частоты кадров : ПостоянныйЧастота кадров : 25,000 кадров/секЧастота кадров в оригинале : 12,500 кадров/секЦветовое пространство : YUVСубдискретизация насыщенности : 4:2:0Битовая глубина : 8 битТип развёртки : ПрогрессивнаяБит/(Пиксели*Кадры) : 0.170Размер потока : 3,33 Гбайт (96%)Язык : EnglishДата кодирования : UTC 2013-10-24 05:03:07Дата пометки : UTC 2013-10-24 05:03:07

АудиоИдентификатор : 1Формат : AACФормат/Информация : Advanced Audio CodecПрофиль формата : LCИдентификатор кодека : 40Продолжительность : 53 м.Вид битрейта : ПостоянныйБитрейт : 384 Кбит/секНоминальный битрейт : 128 Кбит/секКаналы : 2 каналаРасположение каналов : Front: L RЧастота : 48,0 КГцМетод сжатия : С потерямиРазмер потока : 148 Мбайт (4%)Язык : EnglishДата кодирования : UTC 2013-10-24 05:03:07Дата пометки : UTC 2013-10-24 05:03:07


Трекер:  [ 29-Дек-2013 13:33 ]

  

Скачать .torrent

Размер .torrent файла 18 KB


Размер: 3.48 GB
Хэш (hash) релиза: 731babc96b0a6955326ecfa6479ab0cdfbb57e83

Еще никто не оставлял запись к записи скачать торрент Sebastien Tellier - Live At Pitchfork Paris Festival 2012 . Будь первым!

!Обратная связь