Скачать через торрент музыку James Blake - Live At Pitchfork Paris Festival 2012 бесплатно без регистрации torrent

Если у вас наблюдаются проблемы со скриншотами, переходом по ссылками, скачиванием торрентов - проблемы в блокировщике рекламы AdBlock. #хорошегоДня!


Статистика раздачи
Размер:  3.54 GB   |    Зарегистрирован:  3 года 9 месяцев   |    .torrent скачан:  41 раз   |   
Раздают:  1  
   
Загрузка...
 
Автор Сообщение

Galfimbul

avatar Galfimbul


James Blake - Live At Pitchfork Paris Festival 2012

Жанр: dubstep, experimental, IDM
Продолжительность: 00:55:00
Год выпуска: 2012

Описание:
James Blake - Live At Pitchfork Paris Festival 2012
Filmed at La grande halle de la Villette, Paris november 2012

= Треклист =
1. Order
2. Pan
3. CMYK
4. I Never Learnt To Share
5. Limit To Your Love
6. Love What Happened Here
7. I Only Know (What I Know Now)
8. Anti-War Dub


Качество: HDTVRip 1080p
Контейнер: MPEG-4
Видео кодек: H.264
Аудио кодек: AAC
Видео: 1920x1080 (16:9), 25.00 fps, AVC, 8826 Кбит, 0.169 bits/pixel
Аудио: 48.0 KHz, AAC-LC, 2 ch, stereo, ~128 Kbps VBR
Полное имя : G:\DVD\James Blake - LaPP (2012)\James Blake - Live At Pitchfork Paris Festival.mp4Формат : MPEG-4Профиль формата : Base Media / Version 2Идентификатор кодека : mp42Размер файла : 3,54 ГбайтПродолжительность : 55 м.Общий поток : 9213 Кбит/секДата кодирования : UTC 2013-10-24 07:13:28Дата пометки : UTC 2013-10-24 07:13:28

ВидеоИдентификатор : 2Формат : AVCФормат/Информация : Advanced Video CodecПрофиль формата : Main@L4.0Параметр CABAC формата : ДаПараметр ReFrames формата : 2 кадраИдентификатор кодека : avc1Идентификатор кодека/Информация : Advanced Video CodingПродолжительность : 55 м.Вид битрейта : ПеременныйБитрейт : 8826 Кбит/секМаксимальный битрейт : 9001 Кбит/секШирина : 1920 пикселейВысота : 1088 пикселейВысота оригинала : 1080 пикселейСоотношение сторон : 16:9Соотношение сторон в оригинале : 16:9Режим частоты кадров : ПостоянныйЧастота кадров : 25,000 кадров/секЧастота кадров в оригинале : 12,500 кадров/секЦветовое пространство : YUVСубдискретизация насыщенности : 4:2:0Битовая глубина : 8 битТип развёртки : ПрогрессивнаяБит/(Пиксели*Кадры) : 0.169Размер потока : 3,39 Гбайт (96%)Язык : EnglishДата кодирования : UTC 2013-10-24 07:13:28Дата пометки : UTC 2013-10-24 07:13:28

АудиоИдентификатор : 1Формат : AACФормат/Информация : Advanced Audio CodecПрофиль формата : LCИдентификатор кодека : 40Продолжительность : 55 м.Вид битрейта : ПостоянныйБитрейт : 384 Кбит/секНоминальный битрейт : 128 Кбит/секКаналы : 2 каналаРасположение каналов : Front: L RЧастота : 48,0 КГцМетод сжатия : С потерямиРазмер потока : 150 Мбайт (4%)Язык : EnglishДата кодирования : UTC 2013-10-24 07:13:28Дата пометки : UTC 2013-10-24 07:13:28


Трекер:  [ 29-Дек-2013 13:33 ]

  

Скачать .torrent

Размер .torrent файла 18 KB


Размер: 3.54 GB
Хэш (hash) релиза: 5b2543e213b94c159e8b55ac04892e6734b524d5

Еще никто не оставлял запись к записи скачать торрент James Blake - Live At Pitchfork Paris Festival 2012 . Будь первым!

!Обратная связь