Скачать через торрент музыку Jupiter Ace Feat. Geneva Lane - Glowing In The Dark бесплатно без регистрации torrent

Если у вас наблюдаются проблемы со скриншотами, переходом по ссылками, скачиванием торрентов - проблемы в блокировщике рекламы AdBlock. #хорошегоДня!


Статистика раздачи
Размер:  1.12 GB   |    Зарегистрирован:  3 года 9 месяцев   |    .torrent скачан:  41 раз   |   
Раздают:  1  
   
Загрузка...
 
Автор Сообщение

Galfimbul

avatar Galfimbul


Jupiter Ace Feat. Geneva Lane - Glowing In The Dark
Жанр: House
Продолжительность: 00:03:22
Год выпуска: 2012

Описание: Клип на песню, название которой написано выше. Сам клип назвать шедевром режиссерской мысли не могу, но посмотреть там есть на что. А вот музыка уже стоящая - долбит как надо. Качнуть все же стоит, и посидировать тоже.

Доп. информация: В реальности картинка лучше, так как точки на скриншотах красиво размываются, создавая приятный мягкий фон.

Качество: Master
Контейнер: MOV
Видео кодек: H.264
Аудио кодек: AAC
Видео: AVC, 1920*1080p, 47.4 Mbps, 30.120 fps
Аудио: AAC, 120 Kbps, 48.0 KHz, 2 channels
GeneralComplete name : E:\Jupiter Ace Feat. Geneva Lane - Glowing In The Dark (Master-1080p-AVC-AAC).movFormat : MPEG-4Format profile : QuickTimeCodec ID : qtFile size : 1.12 GiBDuration : 3mn 22sOverall bit rate : 47.5 MbpsEncoded date : UTC 2012-10-08 10:10:09Tagged date : UTC 2012-10-08 10:11:30Writing library : Apple QuickTime 7.7.2com.apple.quicktime.player.mov : (Binary)

VideoID : 2Format : AVCFormat/Info : Advanced Video CodecFormat profile : Main@L5.1Format settings, CABAC : NoFormat settings, ReFrames : 2 framesCodec ID : avc1Codec ID/Info : Advanced Video CodingDuration : 3mn 22sSource duration : 3mn 22sBit rate : 47.4 MbpsWidth : 1 888 pixelsOriginal width : 1 920 pixelsHeight : 1 062 pixelsOriginal height : 1 080 pixelsDisplay aspect ratio : 16:9Frame rate mode : ConstantFrame rate : 30.120 fpsColor space : YUVChroma subsampling : 4:2:0Bit depth : 8 bitsScan type : ProgressiveBits/(Pixel*Frame) : 0.784Stream size : 1.12 GiB (100%)Source stream size : 1.12 GiB (100%)Language : EnglishEncoded date : UTC 2012-09-17 10:48:07Tagged date : UTC 2012-10-08 10:11:30Color primaries : BT.709Transfer characteristics : BT.709Matrix coefficients : BT.709

AudioID : 1Format : AACFormat/Info : Advanced Audio CodecFormat profile : LCCodec ID : 40Duration : 3mn 22sBit rate mode : ConstantBit rate : 120 KbpsNominal bit rate : 128 KbpsChannel(s) : 2 channelsChannel positions : Front: L RSampling rate : 48.0 KHzCompression mode : LossyStream size : 2.89 MiB (0%)Language : EnglishEncoded date : UTC 2012-09-17 10:48:07Tagged date : UTC 2012-10-08 10:11:30


Трекер:  [ 29-Дек-2013 13:33 ]

  

Скачать .torrent

Размер .torrent файла 11 KB


Размер: 1.12 GB
Хэш (hash) релиза: 1773d18df160aeb2041c03390ca13847124e1b0a

Еще никто не оставлял запись к записи скачать торрент Jupiter Ace Feat. Geneva Lane - Glowing In The Dark . Будь первым!

!Обратная связь