Скачать через торрент музыку Francois And The Atlas Mountains - Live At Pitchfork Paris Festival 2012 бесплатно без регистрации torrent

Если у вас наблюдаются проблемы со скриншотами, переходом по ссылками, скачиванием торрентов - проблемы в блокировщике рекламы AdBlock. #хорошегоДня!


Статистика раздачи
Размер:  2.56 GB   |    Зарегистрирован:  3 года 9 месяцев   |    .torrent скачан:  41 раз   |   
Раздают:  1  
   
Загрузка...
 
Автор Сообщение

Galfimbul

avatar Galfimbul


Francois And The Atlas Mountains - Live At Pitchfork Paris Festival 2012

Жанр: electronic pop, afrobeat
Продолжительность: 00:39:13
Год выпуска: 2012

Описание:
Francois And The Atlas Mountains - Live At Pitchfork Paris Festival 2012
Filmed at La Grande Halle de La Villette, Paris November 2012

= Треклист =
1. Edge Of Town
2. City Kiss
3. La Vie Dure
4. Bois
5. La Verite
6. Slow Love
7. Piscine


Качество: HDTVRip 1080p
Контейнер: MPEG-4
Видео кодек: H.264
Аудио кодек: AAC
Видео: 1920x1080 (16:9), 25.00 fps, AVC, 8956 Кбит, 0.171 bits/pixel
Аудио: 48.0 KHz, AAC-LC, 2 ch, stereo, ~128 Kbps VBR
Полное имя : G:\DVD\Francois And The Atlas Mountains - LaPP (2012)\Francois And The Atlas Mountains - Live At PP Festival.mp4Формат : MPEG-4Профиль формата : Base Media / Version 2Идентификатор кодека : mp42Размер файла : 2,56 ГбайтПродолжительность : 39 м.Общий поток : 9344 Кбит/секДата кодирования : UTC 2013-10-25 12:40:14Дата пометки : UTC 2013-10-25 12:40:14

ВидеоИдентификатор : 2Формат : AVCФормат/Информация : Advanced Video CodecПрофиль формата : Main@L4.0Параметр CABAC формата : ДаПараметр ReFrames формата : 2 кадраИдентификатор кодека : avc1Идентификатор кодека/Информация : Advanced Video CodingПродолжительность : 39 м.Вид битрейта : ПеременныйБитрейт : 8956 Кбит/секМаксимальный битрейт : 9001 Кбит/секШирина : 1920 пикселейВысота : 1088 пикселейВысота оригинала : 1080 пикселейСоотношение сторон : 16:9Соотношение сторон в оригинале : 16:9Режим частоты кадров : ПостоянныйЧастота кадров : 25,000 кадров/секЧастота кадров в оригинале : 12,500 кадров/секЦветовое пространство : YUVСубдискретизация насыщенности : 4:2:0Битовая глубина : 8 битТип развёртки : ПрогрессивнаяБит/(Пиксели*Кадры) : 0.171Размер потока : 2,45 Гбайт (96%)Язык : EnglishДата кодирования : UTC 2013-10-25 12:40:14Дата пометки : UTC 2013-10-25 12:40:14

АудиоИдентификатор : 1Формат : AACФормат/Информация : Advanced Audio CodecПрофиль формата : LCИдентификатор кодека : 40Продолжительность : 39 м.Вид битрейта : ПостоянныйБитрейт : 384 Кбит/секНоминальный битрейт : 128 Кбит/секКаналы : 2 каналаРасположение каналов : Front: L RЧастота : 48,0 КГцМетод сжатия : С потерямиРазмер потока : 108 Мбайт (4%)Язык : EnglishДата кодирования : UTC 2013-10-25 12:40:14Дата пометки : UTC 2013-10-25 12:40:14


Трекер:  [ 29-Дек-2013 13:33 ]

  

Скачать .torrent

Размер .torrent файла 13 KB


Размер: 2.56 GB
Хэш (hash) релиза: 1965267965e417cf54baff60b4a39f247d0598fe

Еще никто не оставлял запись к записи скачать торрент Francois And The Atlas Mountains - Live At Pitchfork Paris Festival 2012 . Будь первым!

!Обратная связь