Скачать через торрент музыку Disclosure - Live At Pitchfork Paris Festival 2012 бесплатно без регистрации torrent

Если у вас наблюдаются проблемы со скриншотами, переходом по ссылками, скачиванием торрентов - проблемы в блокировщике рекламы AdBlock. #хорошегоДня!


Статистика раздачи
Размер:  2.98 GB   |    Зарегистрирован:  3 года 9 месяцев   |    .torrent скачан:  44 раза   |   
Раздают:  1  
   
Загрузка...
 
Автор Сообщение

Galfimbul

avatar Galfimbul


Disclosure - Live At Pitchfork Paris Festival 2012

Жанр: electronic, deep house
Продолжительность: 00:45:31
Год выпуска: 2012

Описание:
Disclosure - Live At Pitchfork Paris Festival 2012
Filmed at La Grande Halle de La Villette, Paris November 2012

= Треклист =
1. Control
2. Boiling
3. Whats In Your Head
4. I Love... That You Know


Качество: HDTVRip 1080p
Контейнер: MPEG-4
Видео кодек: H.264
Аудио кодек: AAC
Видео: 1920x1080 (16:9), 25.00 fps, AVC, 8979 Кбит, 0.172 bits/pixel
Аудио: 48.0 KHz, AAC-LC, 2 ch, stereo, ~128 Kbps VBR
Полное имя : G:\DVD\Disclosure - LaPP (2012)\Disclosure - Live At Pitchfork Paris Festival.mp4Формат : MPEG-4Профиль формата : Base Media / Version 2Идентификатор кодека : mp42Размер файла : 2,98 ГбайтПродолжительность : 45 м.Общий поток : 9363 Кбит/секДата кодирования : UTC 2013-10-25 11:54:12Дата пометки : UTC 2013-10-25 11:54:12Xtra : WM/MediaClassPrimaryID

ВидеоИдентификатор : 2Формат : AVCФормат/Информация : Advanced Video CodecПрофиль формата : Main@L4.0Параметр CABAC формата : ДаПараметр ReFrames формата : 2 кадраИдентификатор кодека : avc1Идентификатор кодека/Информация : Advanced Video CodingПродолжительность : 45 м.Вид битрейта : ПеременныйБитрейт : 8979 Кбит/секМаксимальный битрейт : 9001 Кбит/секШирина : 1920 пикселейВысота : 1088 пикселейВысота оригинала : 1080 пикселейСоотношение сторон : 16:9Соотношение сторон в оригинале : 16:9Режим частоты кадров : ПостоянныйЧастота кадров : 25,000 кадров/секЧастота кадров в оригинале : 12,500 кадров/секЦветовое пространство : YUVСубдискретизация насыщенности : 4:2:0Битовая глубина : 8 битТип развёртки : ПрогрессивнаяБит/(Пиксели*Кадры) : 0.172Размер потока : 2,85 Гбайт (96%)Язык : EnglishДата кодирования : UTC 2013-10-25 11:54:12Дата пометки : UTC 2013-10-25 11:54:12

АудиоИдентификатор : 1Формат : AACФормат/Информация : Advanced Audio CodecПрофиль формата : LCИдентификатор кодека : 40Продолжительность : 45 м.Вид битрейта : ПостоянныйБитрейт : 384 Кбит/секНоминальный битрейт : 128 Кбит/секКаналы : 2 каналаРасположение каналов : Front: L RЧастота : 48,0 КГцМетод сжатия : С потерямиРазмер потока : 124 Мбайт (4%)Язык : EnglishДата кодирования : UTC 2013-10-25 11:54:12Дата пометки : UTC 2013-10-25 11:54:12


Трекер:  [ 29-Дек-2013 13:33 ]

  

Скачать .torrent

Размер .torrent файла 15 KB


Размер: 2.98 GB
Хэш (hash) релиза: 9336c533728315ee97443bc42e65eef560517d4d

Еще никто не оставлял запись к записи скачать торрент Disclosure - Live At Pitchfork Paris Festival 2012 . Будь первым!

!Обратная связь