Скачать через торрент музыку Scooter - 20 Years of Hardcore - Красноярск 22.10.2013 бесплатно без регистрации torrent

Если у вас наблюдаются проблемы со скриншотами, переходом по ссылками, скачиванием торрентов - проблемы в блокировщике рекламы AdBlock. #хорошегоДня!


Статистика раздачи
Размер:  7.62 GB   |    Зарегистрирован:  3 года 9 месяцев   |    .torrent скачан:  58 раз   |   
Раздают:  1  
   
Загрузка...
 
Автор Сообщение

Galfimbul

avatar Galfimbul


Scooter - 20 Years of Hardcore - Красноярск 22.10.2013

Жанр: Techno, Happy Hardcore
Продолжительность: 1:05:57
Год выпуска: 2013

Описание: Концерт с новой программой 20 Years of Hardcore, состоявшийся 22 октября 2013 года в Красноярске во дворце им. Ивана Ярыгина.

Доп. информация: За труды и предоставленное видео огромное спасибо Dimitry Savanko.

Качество: HDCam
Контейнер: M2TS
Аудио кодек: AC3
Видео: 15.4 Mbps, 1920х1080, 25fps
Аудио: 448 Kbps, 48.0 KHz, 6 каналов
1. Intro
2. Fasterharderscooter
3. The logical song
4. Army of hardcore
5. J''Adore hardcore
6. The queastion is what is the question
7. Weekend
8. How much is the fish
9. I''m raving
10. Jumping all over the world
11. Fuck the millenium
12. Nessaja
13. Maria
14. One (Always Hardcore)
15. Move your ass/Endless summer/Hyper Hyper (Finale TSTI)
GeneralID : 0 (0x0)Complete name : D:\FlylinkDownloads\06.11.2013\Без имени.m2tFormat : BDAVFormat/Info : Blu-ray VideoFile size : 7.62 GiBDuration : 1h 5mnOverall bit rate mode : VariableOverall bit rate : 16.5 MbpsMaximum Overall bit rate : 20.6 Mbps

VideoID : 4113 (0x1011)Menu ID : 1 (0x1)Format : AVCFormat/Info : Advanced Video CodecFormat profile : High@L4.0Format settings, CABAC : YesFormat settings, ReFrames : 2 framesFormat settings, GOP : M=2, N=13Codec ID : 27Duration : 1h 5mnBit rate mode : VariableBit rate : 15.4 MbpsMaximum bit rate : 16.0 MbpsWidth : 1 920 pixelsHeight : 1 080 pixelsDisplay aspect ratio : 16:9Frame rate : 25.000 fpsColor space : YUVChroma subsampling : 4:2:0Bit depth : 8 bitsScan type : InterlacedScan order : Top Field FirstBits/(Pixel*Frame) : 0.298Stream size : 7.11 GiB (93%)

AudioID : 4352 (0x1100)Menu ID : 1 (0x1)Format : AC-3Format/Info : Audio Coding 3Mode extension : CM (complete main)Format settings, Endianness : BigCodec ID : 129Duration : 1h 5mnBit rate mode : ConstantBit rate : 448 KbpsChannel count : 6 channelsChannel positions : Front: L C R, Side: L R, LFESampling rate : 48.0 KHzBit depth : 16 bitsCompression mode : LossyDelay relative to video : -80msStream size : 211 MiB (3%)


Трекер:  [ 29-Дек-2013 13:33 ]

  

Скачать .torrent

Размер .torrent файла 19 KB


Размер: 7.62 GB
Хэш (hash) релиза: 2ae14c2e73c0bf8019bb8e5326a533d28f481e84

Еще никто не оставлял запись к записи скачать торрент Scooter - 20 Years of Hardcore - Красноярск 22.10.2013 . Будь первым!

!Обратная связь