Скачать через торрент музыку DefQon.1 Festival 2013 бесплатно без регистрации torrent

Если у вас наблюдаются проблемы со скриншотами, переходом по ссылками, скачиванием торрентов - проблемы в блокировщике рекламы AdBlock. #хорошегоДня!


Статистика раздачи
Размер:  9.84 GB   |    Зарегистрирован:  3 года 9 месяцев   |    .torrent скачан:  42 раза   |   
Раздают:  1  
   
Загрузка...
 
Автор Сообщение

Galfimbul

avatar Galfimbul


DefQon.1 Festival 2013
Жанр: Hardstyle / Hardcore
Продолжительность: 02:23:22
Год выпуска: 2013

Описание: Ежегодный open air фестиваль тяжелой электронной музыки проходящий преимущественно летом в Нидерландах, в частности посвящен таким стилям как Hardstyle и Hardcore. С 2009 года фестиваль так же стал проходить в Австралии (Сидней).
21 June :
RED -The Gathering

Frontliner
Headhunterz
Zatox
Hosted by Villain

BLUE - nightparty

We R (Code Black, Brennan Heart)
Hosted by Ruffian

22 June :

RED :
Code Black
Endymion & Evil Activities
Psyko Punkz
Noisecontrollers
Frontliner
Closing Show

UV :
Audiofreq

Orange :

DJ Chuck-E & Shocker Show

Green :
Mark With a K

Silver :
The Hard Way (Thrasher VS Limewax VS Bong-Ra)

Blue :

B-Front

Purple :

Emperador

23 June :

Black :

Art Of Fighters LIVE
Mad Dog & Noize Suppressor

Magenta:

Beholder & Balistic

UV :

Da Tweekaz

White :

Geck-E

RED - The Closing

The Gathering
Coone
Wildstylez
Gunz For Hire
The Closing Show
Качество: BDRip 1080p
Контейнер: MKV
Видео кодек: H.264
Аудио кодек: DTS
Видео: 16:9 1920*952 24.00fps 8317kbps
Аудио: DTS 1509kbps 6 Ch
Complete name : E:\DefQon.One.Festival.2013.1080p.MBluRay.x264-TREBLE\defqon.one.2013.1080p.mkvFormat : MatroskaFormat version : Version 4 / Version 2File size : 9.84 GiBDuration : 2h 23mnOverall bit rate : 9 829 KbpsEncoded date : UTC 2013-11-17 18:59:08Writing application : mkvmerge v6.2.0 (''Promised Land'') built on Apr 28 2013 12:22:01Writing library : libebml v1.3.0 + libmatroska v1.4.0

VideoID : 1Format : AVCFormat/Info : Advanced Video CodecFormat profile : High@L4.1Format settings, CABAC : YesFormat settings, ReFrames : 4 framesCodec ID : V_MPEG4/ISO/AVCDuration : 2h 23mnBit rate : 8 317 KbpsWidth : 1 920 pixelsHeight : 952 pixelsDisplay aspect ratio : 2.017Frame rate mode : ConstantFrame rate : 24.000 fpsColor space : YUVChroma subsampling : 4:2:0Bit depth : 8 bitsScan type : ProgressiveBits/(Pixel*Frame) : 0.190Stream size : 8.14 GiB (83%)Title : EnglishWriting library : x264 core 140 r2377 1ca7bb9Encoding settings : cabac=1 / ref=4 / deblock=1:0:0 / analyse=0x3:0x113 / me=umh / subme=8 / psy=1 / psy_rd=1.00:0.00 / mixed_ref=1 / me_range=16 / chroma_me=1 / trellis=1 / 8x8dct=1 / cqm=0 / deadzone=21,11 / fast_pskip=1 / chroma_qp_offset=-2 / threads=6 / lookahead_threads=1 / sliced_threads=0 / nr=0 / decimate=1 / interlaced=0 / bluray_compat=0 / constrained_intra=0 / bframes=3 / b_pyramid=2 / b_adapt=2 / b_bias=0 / direct=3 / weightb=1 / open_gop=0 / weightp=2 / keyint=240 / keyint_min=24 / scenecut=40 / intra_refresh=0 / rc_lookahead=50 / rc=2pass / mbtree=1 / bitrate=8317 / ratetol=1.0 / qcomp=0.60 / qpmin=0 / qpmax=69 / qpstep=4 / cplxblur=20.0 / qblur=0.5 / ip_ratio=1.40 / aq=1:1.00Language : EnglishDefault : YesForced : No

AudioID : 2Format : DTSFormat/Info : Digital Theater SystemsMode : 16Format settings, Endianness : BigCodec ID : A_DTSDuration : 2h 23mnBit rate mode : ConstantBit rate : 1 509 KbpsChannel(s) : 6 channelsChannel positions : Front: L C R, Side: L R, LFESampling rate : 48.0 KHzBit depth : 16 bitsCompression mode : LossyStream size : 1.51 GiB (15%)Title : EnglishLanguage : EnglishDefault : YesForced : No

Menu00:00:00.000 : en:00:00:00.00000:04:18.708 : en:00:04:18.70800:14:37.625 : en:00:14:37.62500:21:39.417 : en:00:21:39.41700:28:22.583 : en:00:28:22.58300:34:51.917 : en:00:34:51.91700:37:09.333 : en:00:37:09.33300:39:36.833 : en:00:39:36.83301:19:52.167 : en:01:19:52.16701:42:38.250 : en:01:42:38.25002:14:17.125 : en:02:14:17.125


Трекер:  [ 29-Дек-2013 13:33 ]

  

Скачать .torrent

Размер .torrent файла 49 KB


Размер: 9.84 GB
Хэш (hash) релиза: 098cff81391ea8a4b65f05c112e43383b880de63

Торренты, похожие на DefQon.1 Festival 2013 скачать торрент

Форум Название Автор Размер S L Добавлен
Электронная музыка (video) ·· DefQon.1 Festival 2013 [2013, Hardstyle / Hardcore, BDRip 720p] Galfimbul 70248336176.54 GB 0 0 1388311253

13:00

29-Дек-13

Еще никто не оставлял запись к записи скачать торрент DefQon.1 Festival 2013 . Будь первым!

!Обратная связь