Скачать через торрент музыку Icona Pop - I Love It бесплатно без регистрации torrent

Если у вас наблюдаются проблемы со скриншотами, переходом по ссылками, скачиванием торрентов - проблемы в блокировщике рекламы AdBlock. #хорошегоДня!


Статистика раздачи
Размер:  476 MB   |    Зарегистрирован:  3 года 9 месяцев   |    .torrent скачан:  39 раз   |   
Раздают:  1  
   
Загрузка...
 
Автор Сообщение

Galfimbul

avatar Galfimbul


Icona Pop - I Love It (Sukkiri 19th.Nov.13)



Жанр: Electropop
Продолжительность: 04:34
Год выпуска: 2013

Качество: HDTV 1080i
Контейнер: TS
Видео кодек: MPEG2
Аудио кодек: AC3
Видео: MPEG-2, 1440x1080i, 29.97 fps, 13.7 Mbps
Аудио: AС-3, 48.0 KHz, 192 Kbps (2 Ch.)



GeneralID : 0 (0x0)Complete name : C:\Users\admin\Desktop\ICONA POP - I Love It (Sukkiri 19th.Nov.13)_masahiro_.tsFormat : BDAVFormat/Info : Blu-ray VideoFile size : 476 MiBDuration : 4mn 34sOverall bit rate mode : VariableOverall bit rate : 14.5 MbpsMaximum Overall bit rate : 48.0 Mbps

VideoID : 4113 (0x1011)Menu ID : 1 (0x1)Format : MPEG VideoFormat version : Version 2Format profile : Main@HighFormat settings, BVOP : YesFormat settings, Matrix : CustomFormat settings, GOP : M=3, N=15Codec ID : 2Duration : 4mn 34sBit rate mode : VariableBit rate : 13.7 MbpsMaximum bit rate : 24.0 MbpsWidth : 1 440 pixelsHeight : 1 080 pixelsDisplay aspect ratio : 16:9Frame rate : 29.970 fpsColor space : YUVChroma subsampling : 4:2:0Bit depth : 8 bitsScan type : InterlacedScan order : Top Field FirstCompression mode : LossyBits/(Pixel*Frame) : 0.295Time code of first frame : 22:05:49;11Time code source : Group of pictures headerStream size : 449 MiB (94%)Color primaries : BT.709Transfer characteristics : BT.709Matrix coefficients : BT.709

AudioID : 4352 (0x1100)Menu ID : 1 (0x1)Format : AC-3Format/Info : Audio Coding 3Mode extension : CM (complete main)Format settings, Endianness : BigCodec ID : 129Duration : 4mn 34sBit rate mode : ConstantBit rate : 192 KbpsChannel(s) : 2 channelsChannel positions : Front: L RSampling rate : 48.0 KHzBit depth : 16 bitsCompression mode : LossyDelay relative to video : 39msStream size : 6.29 MiB (1%)


Трекер:  [ 29-Дек-2013 13:33 ]

  

Скачать .torrent

Размер .torrent файла 19 KB


Размер: 476 MB
Хэш (hash) релиза: a4bfbb76cffb7738f50e177e0a397e40a65b3c91

Торренты, похожие на Icona Pop - I Love It скачать торрент

Форум Название Автор Размер S L Добавлен
Электронная музыка (video) ·· Icona Pop - I Love It [2012, Electropop, HDTV 1080i] Galfimbul 198233780189 MB 0 0 1388311245

13:00

29-Дек-13

Еще никто не оставлял запись к записи скачать торрент Icona Pop - I Love It . Будь первым!

!Обратная связь