Скачать через торрент музыку Icona Pop - I Love It бесплатно без регистрации torrent

Если у вас наблюдаются проблемы со скриншотами, переходом по ссылками, скачиванием торрентов - проблемы в блокировщике рекламы AdBlock. #хорошегоДня!


Статистика раздачи
Размер:  189 MB   |    Зарегистрирован:  3 года 9 месяцев   |    .torrent скачан:  36 раз   |   
Раздают:  1  
   
Загрузка...
 
Автор Сообщение

Galfimbul

avatar Galfimbul


Icona Pop - I Love It



Жанр: Electropop
Продолжительность: 02:47
Год выпуска: 2012

Качество: HDTV 1080i
Контейнер: TS
Видео кодек: H.264
Аудио кодек: AC3
Видео: AVC (H.264), 1920x1080i, 29.97 fps, 8419 Kbps
Аудио: AC-3, 48.0 KHz, 384 Kbps (5 Ch.)
Аудио 2: MP2, 48.0 KHz, 192 Kbps (2 Ch.)



GeneralID : 1 (0x1)Complete name : C:\Users\admin\Desktop\Icona Pop Feat. Charli XCX - I Love It (MULTISHOWHD-1080i-DD5.1-CELOBRAZiL).tsFormat : MPEG-TSFile size : 189 MiBDuration : 2mn 47sOverall bit rate mode : VariableOverall bit rate : 9 468 Kbps

VideoID : 4384 (0x1120)Menu ID : 1 (0x1)Format : AVCFormat/Info : Advanced Video CodecFormat profile : High@L4.0Format settings, CABAC : YesFormat settings, ReFrames : 4 framesCodec ID : 27Duration : 2mn 47sBit rate : 8 419 KbpsWidth : 1 920 pixelsHeight : 1 080 pixelsDisplay aspect ratio : 16:9Frame rate : 29.970 fpsColor space : YUVChroma subsampling : 4:2:0Bit depth : 8 bitsScan type : MBAFFBits/(Pixel*Frame) : 0.135Stream size : 168 MiB (89%)Color primaries : BT.709Transfer characteristics : BT.709Matrix coefficients : BT.709

Audio #1ID : 4385 (0x1121)Menu ID : 1 (0x1)Format : AC-3Format/Info : Audio Coding 3Mode extension : CM (complete main)Format settings, Endianness : BigCodec ID : 129Duration : 2mn 47sBit rate mode : ConstantBit rate : 384 KbpsChannel(s) : 5 channelsChannel positions : Front: L C R, Side: L RSampling rate : 48.0 KHzBit depth : 16 bitsCompression mode : LossyDelay relative to video : -33msStream size : 7.67 MiB (4%)Language : Portuguese

Audio #2ID : 4386 (0x1122)Menu ID : 1 (0x1)Format : MPEG AudioFormat version : Version 1Format profile : Layer 2Codec ID : 3Duration : 2mn 47sBit rate mode : ConstantBit rate : 192 KbpsChannel(s) : 2 channelsSampling rate : 48.0 KHzCompression mode : LossyDelay relative to video : -33msStream size : 3.83 MiB (2%)Language : English


Трекер:  [ 29-Дек-2013 13:33 ]

  

Скачать .torrent

Размер .torrent файла 15 KB


Размер: 189 MB
Хэш (hash) релиза: 9ffe93458494c46c3b038787fc5fe614be60a516

Торренты, похожие на Icona Pop - I Love It скачать торрент

Форум Название Автор Размер S L Добавлен
Электронная музыка (video) ·· Icona Pop - I Love It (Sukkiri 19th.Nov.13) [2013, Electropop, HDTV 1080i] Galfimbul 498760704476 MB 0 0 1388311246

13:00

29-Дек-13

Еще никто не оставлял запись к записи скачать торрент Icona Pop - I Love It . Будь первым!

!Обратная связь