Скачать через торрент музыку Duck Sauce - Its бесплатно без регистрации torrent

Если у вас наблюдаются проблемы со скриншотами, переходом по ссылками, скачиванием торрентов - проблемы в блокировщике рекламы AdBlock. #хорошегоДня!


Статистика раздачи
Размер:  1.23 GB   |    Зарегистрирован:  3 года 9 месяцев   |    .torrent скачан:  41 раз   |   
Раздают:  1  
   
Загрузка...
 
Автор Сообщение

Galfimbul

avatar Galfimbul


Duck Sauce - It''s (Its) You
Жанр: House, Dance
Продолжительность: 00:03:09
Год выпуска: 2013

Описание: Перед нами немного необычная парикмахерская, на первый взгляд вроде все как и должно быть, но на самом то деле это место заряжено дикой энергией - против нее даже прически не могут устоять! В конце концов, парикмахерская тоже не в силах устоять, наша дикая энергия вырывается, правда при помощи небольшого внешнего воздействия, и все превращается... превращается в пенную вечеринку! Вот как! Музыка тоже на первый взгляд ничем не отличается от сотен других, таких же "туц-туц" композиций, но трек какой-то заразный, меня на эту песню заело. Качать, не качать - дело сугубо личное, но судя по всему, этот вопрос стоять не дожен, брать нужно однозначно!

Доп. информация: И все таки тяжело раздавать на ADSL... Поэтому все неравнодушные к пользователям с маленькими до... ой низкоскоростными соединениями могут сделать всем приятно - просто не бросать раздачу после скачивания. Заранее спасибо за понимание.

Качество: Master
Контейнер: MOV
Видео кодек: H.264
Аудио кодек: PCM
Видео: AVC, 1920*1080p, 54.6 Mbps, 23.976 fps
Аудио: PCM, 1 536 Kbps, 48.0 KHz, 2 channels
GeneralComplete name : E:\Music Video\HD Quality\Duck Sauce - It''s You.movFormat : QuickTimeFormat/Info : Original Apple specificationsFile size : 1.23 GiBDuration : 3mn 9sOverall bit rate : 56.1 MbpsEncoded date : UTC 2013-11-01 23:46:04Tagged date : UTC 2013-11-01 23:56:19Writing library : Apple QuickTime

VideoID : 1Format : AVCFormat/Info : Advanced Video CodecFormat profile : Baseline@L5.1Format settings, CABAC : NoFormat settings, ReFrames : 2 framesFormat settings, GOP : M=1, N=120Codec ID : avc1Codec ID/Info : Advanced Video CodingDuration : 3mn 9sBit rate : 54.6 MbpsWidth : 1 920 pixelsHeight : 1 080 pixelsDisplay aspect ratio : 16:9Frame rate mode : ConstantFrame rate : 23.976 fpsColor space : YUVChroma subsampling : 4:2:0Bit depth : 8 bitsScan type : ProgressiveBits/(Pixel*Frame) : 1.097Stream size : 1.20 GiB (97%)Language : EnglishEncoded date : UTC 2013-11-01 23:46:04Tagged date : UTC 2013-11-01 23:56:19Color primaries : BT.709Transfer characteristics : BT.709Matrix coefficients : BT.709

AudioID : 2Format : PCMFormat settings, Endianness : BigFormat settings, Sign : SignedCodec ID : twosDuration : 3mn 9sSource duration : 3mn 9sBit rate mode : ConstantBit rate : 1 536 KbpsChannel count : 2 channelsSampling rate : 48.0 KHzBit depth : 16 bitsStream size : 34.6 MiB (3%)Source stream size : 34.6 MiB (3%)Language : EnglishEncoded date : UTC 2013-11-01 23:46:04Tagged date : UTC 2013-11-01 23:56:19


Трекер:  [ 29-Дек-2013 13:33 ]

  

Скачать .torrent

Размер .torrent файла 13 KB


Размер: 1.23 GB
Хэш (hash) релиза: b42e6161432103b01b977c7041a4ddc65f26ba8a

Еще никто не оставлял запись к записи скачать торрент Duck Sauce - Its . Будь первым!

!Обратная связь