Скачать через торрент музыку Inna - WOW бесплатно без регистрации torrent

Если у вас наблюдаются проблемы со скриншотами, переходом по ссылками, скачиванием торрентов - проблемы в блокировщике рекламы AdBlock. #хорошегоДня!


Статистика раздачи
Размер:  1.18 GB   |    Зарегистрирован:  3 года 9 месяцев   |    .torrent скачан:  46 раз   |   
Раздают:  1  
   
Загрузка...
 
Автор Сообщение

Galfimbul

avatar Galfimbul


Inna - WOW
Жанр: Pop, Dance
Продолжительность: 00:04:55
Год выпуска: 2012

Описание: Что то я даже не знаю, как этот клип описать то можно... И какой стороной он относится к музыке. Понятно только одно - настоящих тусовщиков ничто не остановит. Эти дикие пляски надо видеть, качайте, прикольный клип.
Качество: Master
Контейнер: MOV
Видео кодек: H.264
Аудио кодек: PCM
Видео: AVC, 1280*720p, 33.0 Mbps, 25 fps
Аудио: PCM, 1 411.2 Kbps, 44.1 KHz, 2 channels
GeneralComplete name : E:\Music Video\HD Quality\Inna - WOW.movFormat : MPEG-4Format profile : QuickTimeCodec ID : qtFile size : 1.18 GiBDuration : 4mn 54sOverall bit rate : 34.5 MbpsEncoded date : UTC 2012-03-30 18:13:40Tagged date : UTC 2012-03-30 18:45:45Writing library : Apple QuickTime

VideoID : 2Format : AVCFormat/Info : Advanced Video CodecFormat profile : Main@L5.0Format settings, CABAC : NoFormat settings, ReFrames : 2 framesCodec ID : avc1Codec ID/Info : Advanced Video CodingDuration : 4mn 54sBit rate : 33.0 MbpsWidth : 1 280 pixelsHeight : 720 pixelsDisplay aspect ratio : 16:9Frame rate mode : ConstantFrame rate : 25.000 fpsColor space : YUVChroma subsampling : 4:2:0Bit depth : 8 bitsScan type : ProgressiveBits/(Pixel*Frame) : 1.434Stream size : 1.13 GiB (96%)Language : EnglishEncoded date : UTC 2012-03-30 18:30:21Tagged date : UTC 2012-03-30 18:45:45Color primaries : BT.709Transfer characteristics : BT.709Matrix coefficients : BT.709

AudioID : 1Format : PCMFormat settings, Endianness : LittleFormat settings, Sign : SignedCodec ID : sowtDuration : 4mn 54sBit rate mode : ConstantBit rate : 1 411.2 KbpsChannel count : 2 channelsChannel positions : Front: L RSampling rate : 44.1 KHzBit depth : 16 bitsStream size : 49.6 MiB (4%)Language : EnglishEncoded date : UTC 2012-03-30 18:30:20Tagged date : UTC 2012-03-30 18:45:45


Трекер:  [ 29-Дек-2013 13:33 ]

  

Скачать .torrent

Размер .torrent файла 12 KB


Размер: 1.18 GB
Хэш (hash) релиза: 7bfc5a411cf8c5b902cba78690b5fba9609fc5e5

Торренты, похожие на Inna - WOW скачать торрент

Форум Название Автор Размер S L Добавлен
Электронная музыка ·· Inna-Wow. (Live Session 2012) [2012, Pop, Dance, HDTV] Galfimbul 108133652103 MB 0 0 1334992500

10:15

21-Апр-12

Еще никто не оставлял запись к записи скачать торрент Inna - WOW . Будь первым!

!Обратная связь