Скачать через торрент музыку Inna ft. Juan Magan - Un Momento бесплатно без регистрации torrent

Если у вас наблюдаются проблемы со скриншотами, переходом по ссылками, скачиванием торрентов - проблемы в блокировщике рекламы AdBlock. #хорошегоДня!


Статистика раздачи
Размер:  1.46 GB   |    Зарегистрирован:  3 года 9 месяцев   |    .torrent скачан:  55 раз   |   
Раздают:  1  
   
Загрузка...
 
Автор Сообщение

Galfimbul

avatar Galfimbul





Inna ft. Juan Magan - Un Momento





Жанр: Pop, Dance
Продолжительность: 00:04:03
Год выпуска: 2011
Качество: Master
Контейнер: MPEG-TS (.m2t)
Видео: MPEG-2 / 48.8 Mbps / 1080p / 25 fps / 16:9 /
Аудио: MP2, 2(ch) Front: L R, 48,0 kHz, 384 Kbps



Format : MPEG-TSFile size : 1.46 GiBDuration : 4mn 3sOverall bit rate mode : ConstantOverall bit rate : 51.7 MbpsMaximum Overall bit rate : 19.7 Mbps

VideoID : 4096 (0x1000)Menu ID : 1 (0x1)Format : MPEG VideoFormat version : Version 2Format profile : Main@HighFormat settings, BVOP : YesFormat settings, Matrix : DefaultFormat settings, GOP : M=3, N=12Codec ID : 2Duration : 4mn 3sBit rate : 48.8 MbpsMaximum bit rate : 50.0 MbpsWidth : 1 920 pixelsHeight : 1 080 pixelsDisplay aspect ratio : 16:9Frame rate : 25.000 fpsColor space : YUVChroma subsampling : 4:2:0Bit depth : 8 bitsScan type : ProgressiveCompression mode : LossyBits/(Pixel*Frame) : 0.941Stream size : 1.38 GiB (94%)

AudioID : 4098 (0x1002)Menu ID : 1 (0x1)Format : MPEG AudioFormat version : Version 1Format profile : Layer 2Codec ID : 3Duration : 4mn 3sBit rate mode : ConstantBit rate : 384 KbpsChannel(s) : 2 channelsSampling rate : 48.0 KHzCompression mode : LossyStream size : 11.1 MiB (1%)

MenuID : 110 (0x6E)Menu ID : 1 (0x1)List : 4096 (0x1000) (MPEG Video) / 4098 (0x1002) (MPEG Audio)Maximum bit rate : 51709600



Трекер:  [ 29-Дек-2013 13:32 ]

  

Скачать .torrent

Размер .torrent файла 15 KB


Размер: 1.46 GB
Хэш (hash) релиза: dcd9468934598f56be5f908030e168708a0fb940

Еще никто не оставлял запись к записи скачать торрент Inna ft. Juan Magan - Un Momento . Будь первым!

!Обратная связь