Скачать через торрент музыку Bassnectar бесплатно без регистрации torrent

Если у вас наблюдаются проблемы со скриншотами, переходом по ссылками, скачиванием торрентов - проблемы в блокировщике рекламы AdBlock. #хорошегоДня!


Статистика раздачи
Размер:  413 MB   |    Зарегистрирован:  3 года 9 месяцев   |    .torrent скачан:  57 раз   |   
Раздают:  1  
   
Загрузка...
 
Автор Сообщение

Galfimbul

avatar Galfimbul


Bassnectar (Ft. Lupe Fiasco) - Vava Voom

Жанр: Dubstep
Продолжительность: 3 м. 52 с. 65 м
Год выпуска: 2012

Описание: Bassnectar (Ft. Lupe Fiasco) - Vava Voom

Доп. информация: Directed by: Joey Garfield
Creative Direction: Ryan Hooks
Editor: Isaac Royffe
3d Animation: Nicholas Jerald Rocco
3d: Amanda Schwartz
VFX: Daniel Hoffman
2d: Tyler Bowers

Качество: Master
Контейнер: MOV
Видео кодек: H.264
Аудио кодек: PCM
Видео: AVC at 13,5 Мбит/сек 1280 x 720 (1.778) at 23.976 fps
Аудио: PCM at 1411,2 Кбит/сек 2 канала, 44,1 КГц
Format : MPEG-4Format profile : QuickTimeCodec ID : qtFile size : 413 МбайтDuration : 3 м. 52 с.Overall bit rate : 14,9 Мбит/секEncoded date : UTC 2012-03-30 15:51:37Tagged date : UTC 2012-03-30 15:51:51Writing library : Apple QuickTime

ВидеоID : 2Format : AVCFormat/Info : Advanced Video CodecFormat profile : Main@L4.1Format settings, CABAC : НетFormat settings, ReFrames : 2 кадраFormat settings, GOP : M=2, N=24Codec ID : avc1Codec ID/Info : Advanced Video CodingDuration : 3 м. 52 с.Bit rate : 13,5 Мбит/секWidth : 1280 пикселейHeight : 720 пикселейDisplay aspect ratio : 16:9Frame rate mode : ПостоянныйFrame rate : 23,976 кадра/секColor space : YUVChroma subsampling : 4:2:0Bit depth : 8 битScan type : ПрогрессивнаяBits/(Pixel*Frame) : 0.611Stream size : 373 Мбайт (91%)Language : EnglishEncoded date : UTC 2012-03-30 15:51:18Tagged date : UTC 2012-03-30 15:51:51Основные цвета : BT.709Характеристики трансфера : BT.709Коэффициенты матрицы : BT.709

АудиоID : 1Format : PCMFormat settings, Endianness : LittleFormat settings, Sign : SignedCodec ID : sowtDuration : 3 м. 52 с.Bit rate mode : ПостоянныйBit rate : 1411,2 Кбит/секChannel(s) : 2 каналаChannel positions : Front: L RSampling rate : 44,1 КГцBit depth : 16 битStream size : 39,0 Мбайт (9%)Language : EnglishEncoded date : UTC 2012-03-30 15:51:18Tagged date : UTC 2012-03-30 15:51:51


Трекер:  [ 29-Дек-2013 13:32 ]

  

Скачать .torrent

Размер .torrent файла 16 KB


Размер: 413 MB
Хэш (hash) релиза: 9b5d498316a68ab99b9fc54c3692a195fe4a2f84

Торренты, похожие на Bassnectar скачать торрент

Форум Название Автор Размер S L Добавлен
Электронная музыка (lossless) ·· (Dubstep) [WEB] Bassnectar - Reflective (Part 1) - 2017, FLAC (tracks), lossless Galfimbul 232230033221 MB 0 0 1497666841

05:34

17-Июн-17

Электронная музыка (mp3) ·· (Electronica, Glitch Hop, Dubstep, House) VA - Bassnectar, Joe Trapanese, The Glitch Mob - Love Death Immortality The Remixes - 2015, MP3, 320 kbps Galfimbul 222921689213 MB 0 0 1466484807

07:53

21-Июн-16

Электронная музыка (lossless) ·· (Breakbeat, Dubstep, Trap) [WEB] Bassnectar - Unlimited - 2016, FLAC (tracks), lossless Galfimbul 513238045489 MB 0 0 1466106134

22:42

16-Июн-16

Электронная музыка (mp3) ·· (Dubstep / Breakbeat / Glitch Hop / Trap) Bassnectar - Unlimited - 2016, MP3 (tracks), 320 kbps Galfimbul 155363959148 MB 0 0 1466098871

20:41

16-Июн-16

Электронная музыка (lossless) ·· (Dubstep/Electronic/Drumstep/Trap) [WEB] Bassnectar - Into The Sun - 2015, FLAC (tracks+.cue), lossless Galfimbul 497175425474 MB 0 0 1450279707

18:28

16-Дек-15

Электронная музыка (lossless) ·· (Electronica, Glitch Hop, Dubstep, House) [WEB] VA - Bassnectar, The Glitch Mob - Love Death Immortality The Remixes - 2015, FLAC (tracks), lossless Galfimbul 678573402647 MB 0 0 1446239839

00:17

31-Окт-15

Электронная музыка (mp3) ·· (Dubstep / Breakbeat / Glitch / Trap / Electronica) Bassnectar - Into The Sun (2CD) - 2015, MP3 (tracks), 320 kbps Galfimbul 338170886323 MB 0 0 1438162713

12:38

29-Июл-15

Электронная музыка (lossless) ·· (Dubstep) [CD] Bassnectar - Into The Sun - 2015, FLAC (tracks+.cue), lossless Galfimbul 496964571474 MB 0 0 1435620716

02:31

30-Июн-15

Электронная музыка (mp3) ·· (Dubstep, Hip-Hop, Electro House, Drum & Bass) VA - Bassnectar, Kill Paris, Minnesota - NVSB Remixes - 2014-10-28, MP3, 320 kbps Galfimbul 224354566214 MB 0 0 1434462866

16:54

16-Июн-15

Электронная музыка (mp3) ·· (Dubstep) Underworld - Rez (Bassnectar Remix) (Child's Play [CP586BP]) - 2013, MP3 (tracks), 320 kbps Galfimbul 1278191612 MB 0 0 1425905866

15:57

9-Мар-15

Электронная музыка (lossless) ·· (Dubstep, Bass, Trap) [CD] Bassnectar - Noise vs Beauty (Amorphous Music [AM016]), 2014, FLAC (tracks+.cue), lossless Galfimbul 461745300440 MB 0 0 1411485839

18:23

23-Сен-14

Электронная музыка (mp3) ·· (Dubstep) Bassnectar - Freestyle Mixtape Vol. 8 - 2012, MP3, 320 kbps Galfimbul 10168696797 MB 0 0 1362410522

18:22

4-Мар-13

Электронная музыка ·· (Dubstep, Drumstep) Bassnectar - Freestyle - 2012 (WEB), FLAC (tracks), lossless Galfimbul 211886079202 MB 0 0 1350796740

08:19

21-Окт-12

Электронная музыка ·· (Breakbeat, Breaks, Downtempo) Bassnectar - Diverse Systems Of Throb - 2004 (WEB), FLAC (tracks), lossless Galfimbul 520994610497 MB 0 0 1349280120

19:02

3-Окт-12

Электронная музыка ·· (Breakbeat, Dubstep) Bassnectar - Heads Up - 2008, FLAC (tracks + .cue), lossless Galfimbul 145981858139 MB 0 0 1340374620

17:17

22-Июн-12

Электронная музыка ·· (Dubstep) Bassnectar - Lollapalooza Exclusive - 2009, FLAC (tracks+.cue), lossless Galfimbul 361408153345 MB 0 0 1340374620

17:17

22-Июн-12

Электронная музыка (video) ·· Massive Attack - Risingson (Directed By Walter Stern) (Bassnectar Lab Remix) [2010, Dubstep, DVDRip-AVC] Galfimbul 130341039124 MB 0 0 1294845766

18:22

12-Янв-11

Электронная музыка (lossless) ·· (Breakbeat, Breaks, Techno) Bassnectar - Mesmerizing The Ultra (2CD) - 2005, FLAC (tracks+.cue) Mos 1020393705973 MB 0 0 1294244006

19:13

5-Янв-11

Электронная музыка (lossless) ·· (Electronic / Dubstep) Bassnectar - Wildstyle - 2010, FLAC (tracks+.cue) lossless AqvaGen 255949934244 MB 0 0 1294243961

19:12

5-Янв-11

Еще никто не оставлял запись к записи скачать торрент Bassnectar . Будь первым!

!Обратная связь