Скачать через торрент музыку Inna - More Than Friends бесплатно без регистрации torrent

Если у вас наблюдаются проблемы со скриншотами, переходом по ссылками, скачиванием торрентов - проблемы в блокировщике рекламы AdBlock. #хорошегоДня!


Статистика раздачи
Размер:  936 MB   |    Зарегистрирован:  3 года 9 месяцев   |    .torrent скачан:  50 раз   |   
Раздают:  1  
   
Загрузка...
 
Автор Сообщение

Galfimbul

avatar Galfimbul


Inna - More Than Friends

Жанр: Pop, Dance
Продолжительность: 00:03:25
Год выпуска: 2013

Качество: Master
Контейнер: MPG
Видео кодек: MPEG2
Аудио кодек: MP2
Видео: MPEG2 (4:2:2@High), 1920x1080, 37.0 Mbps, 25.000 fps
Аудио: MP2, 384 kbps, 48.0 kHz, 2 ch
ОбщееПолное имя : T:\Masters\Inna - More Than Friends (MP2-Master-1080p-MPEG2).mpgФормат : MPEG-PSРазмер файла : 936 МбайтПродолжительность : 3 м. 25 с.Режим общего битрейта : ПеременныйОбщий поток : 38,2 Мбит/сек

ВидеоИдентификатор : 224 (0xE0)Формат : MPEG VideoВерсия формата : Version 2Профиль формата : 4:2:2@HighПараметр BVOP формата : ДаПараметр матрицы формата : По умолчаниюПараметр GOP формата : M=3, N=12Продолжительность : 3 м. 25 с.Вид битрейта : ПеременныйБитрейт : 37,0 Мбит/секМаксимальный битрейт : 70,0 Мбит/секШирина : 1920 пикселейВысота : 1080 пикселейСоотношение сторон : 16:9Частота кадров : 25,000 кадров/секСтандарт вещания : PALЦветовое пространство : YUVСубдискретизация насыщенности : 4:2:2Битовая глубина : 8 битТип развёртки : ПрогрессивнаяМетод сжатия : С потерямиБит/(Пиксели*Кадры) : 0.714Временной код первого кадра : 00:00:00:00Оригинал временного кода : Group of pictures headerРазмер потока : 907 Мбайт (97%)Основные цвета : BT.709Характеристики трансфера : BT.709Коэффициенты матрицы : BT.709

АудиоИдентификатор : 192 (0xC0)Формат : MPEG AudioВерсия формата : Version 1Профиль формата : Layer 2Продолжительность : 3 м. 25 с.Вид битрейта : ПостоянныйБитрейт : 384 Кбит/секКаналы : 2 каналаЧастота : 48,0 КГцМетод сжатия : С потерямиЗадержка видео : -80 мс.Размер потока : 9,41 Мбайт (1%)


Трекер:  [ 29-Дек-2013 13:32 ]

  

Скачать .torrent

Размер .torrent файла 18 KB


Размер: 936 MB
Хэш (hash) релиза: 798b2088b15627cde3fda99a8c431aaf1303eedc

Торренты, похожие на Inna - More Than Friends скачать торрент

Форум Название Автор Размер S L Добавлен
Электронная музыка (video) ·· Inna - More Than Friends [2012, Pop, Dance, Master 1080p] Galfimbul 502124544479 MB 0 0 1361799052

16:30

25-Фев-13

Электронная музыка (video) ·· Inna Feat. Daddy Yankee - More Than Friends [2013, Pop, Dance, Master] Galfimbul 16019586551.49 GB 0 0 1388311232

13:00

29-Дек-13

Еще никто не оставлял запись к записи скачать торрент Inna - More Than Friends . Будь первым!

!Обратная связь