Скачать через торрент музыку Inna Feat. Daddy Yankee - More Than Friends бесплатно без регистрации torrent

Если у вас наблюдаются проблемы со скриншотами, переходом по ссылками, скачиванием торрентов - проблемы в блокировщике рекламы AdBlock. #хорошегоДня!


Статистика раздачи
Размер:  1.49 GB   |    Зарегистрирован:  3 года 9 месяцев   |    .torrent скачан:  48 раз   |   
Раздают:  1  
   
Загрузка...
 
Автор Сообщение

Galfimbul

avatar Galfimbul


Inna Feat. Daddy Yankee - More Than Friends

Жанр: Pop, Dance
Продолжительность: 00:04:21
Год выпуска: 2013

Качество: Master
Контейнер: MP4
Видео кодек: H.264
Аудио кодек: AAC
Видео: H.264, 1920x1080, 48.9 Mbps, 25.000 fps
Аудио: AAC, 192 kbps, 48.0 kHz, 2 ch
ОбщееПолное имя : T:\Masters\Inna feat. Daddy Yankee - More Than Friends (AAC-Master-1080p-H264).mp4Формат : MPEG-4Профиль формата : Base Media / Version 2Идентификатор кодека : mp42Размер файла : 1,49 ГбайтПродолжительность : 4 м. 21 с.Режим общего битрейта : ПеременныйОбщий поток : 49,1 Мбит/секДата кодирования : UTC 2013-02-04 21:57:08Дата пометки : UTC 2013-02-04 21:58:02©TIM : 00:00:04:19©TSC : 25©TSZ : 1

ВидеоИдентификатор : 1Формат : AVCФормат/Информация : Advanced Video CodecПрофиль формата : Main@L4.2Параметр CABAC формата : ДаПараметр ReFrames формата : 3 кадраИдентификатор кодека : avc1Идентификатор кодека/Информация : Advanced Video CodingПродолжительность : 4 м. 21 с.Битрейт : 48,9 Мбит/секШирина : 1920 пикселейВысота : 1080 пикселейСоотношение сторон : 16:9Режим частоты кадров : ПостоянныйЧастота кадров : 25,000 кадров/секСтандарт вещания : PALЦветовое пространство : YUVСубдискретизация насыщенности : 4:2:0Битовая глубина : 8 битТип развёртки : ПрогрессивнаяБит/(Пиксели*Кадры) : 0.943Размер потока : 1,49 Гбайт (100%)Язык : EnglishДата кодирования : UTC 2013-02-04 21:57:08Дата пометки : UTC 2013-02-04 21:57:08

АудиоИдентификатор : 2Формат : AACФормат/Информация : Advanced Audio CodecПрофиль формата : LCИдентификатор кодека : 40Продолжительность : 4 м. 21 с.Продолжительность оригинала : 4 м. 21 с.Вид битрейта : ПеременныйБитрейт : 192 Кбит/секМаксимальный битрейт : 291 Кбит/секКаналы : 2 каналаРасположение каналов : Front: L RЧастота : 48,0 КГцМетод сжатия : С потерямиРазмер потока : 5,90 Мбайт (0%)Размер потока оригинала : 5,90 Мбайт (0%)Язык : EnglishДата кодирования : UTC 2013-02-04 21:57:08Дата пометки : UTC 2013-02-04 21:57:08mdhd_Duration : 261248


Трекер:  [ 29-Дек-2013 13:32 ]

  

Скачать .torrent

Размер .torrent файла 15 KB


Размер: 1.49 GB
Хэш (hash) релиза: dace9ea4df3a262dfc822b164c54297a3f2d5770

Еще никто не оставлял запись к записи скачать торрент Inna Feat. Daddy Yankee - More Than Friends . Будь первым!

!Обратная связь