Скачать через торрент музыку Stromae - Papaoutai & Formidable бесплатно без регистрации torrent

Если у вас наблюдаются проблемы со скриншотами, переходом по ссылками, скачиванием торрентов - проблемы в блокировщике рекламы AdBlock. #хорошегоДня!


Статистика раздачи
Размер:  658 MB   |    Зарегистрирован:  3 года 9 месяцев   |    .torrent скачан:  62 раза   |   
Раздают:  1  
   
Загрузка...
 
Автор Сообщение

Galfimbul

avatar Galfimbul


Stromae - Papaoutai & Formidable (NRJ Music Awards)



Жанр: New Beat
Продолжительность: 02:55+05:47
Год выпуска: 2013

Papaoutai
Formidable

Качество: HDTV 1080i
Контейнер: TS
Видео кодек: H.264
Аудио кодек: AC3
Видео: AVC (H.264), 1920x1080i, 25.00 fps, 10.1 Mbps
Аудио: AC-3, 48.0 KHz, 384 Kbps (2 Ch.)
Аудио 2: AC-3, 48.0 KHz, 256 Kbps (2 Ch.)



GeneralID : 1 (0x1)Complete name : C:\Users\admin\Desktop\Stromae - NRJ Music Awards 2013 - 1080i\Stromae - Formidable (NRJ Music Awards 2013).tsFormat : MPEG-TSFile size : 189 MiBDuration : 2mn 55sOverall bit rate mode : VariableOverall bit rate : 9 024 KbpsMaximum Overall bit rate : 35.5 Mbps

VideoID : 4113 (0x1011)Menu ID : 1 (0x1)Format : AVCFormat/Info : Advanced Video CodecFormat profile : High@L4.0Format settings, CABAC : YesFormat settings, ReFrames : 3 framesCodec ID : 27Duration : 2mn 55sBit rate mode : VariableBit rate : 7 932 KbpsMaximum bit rate : 40.0 MbpsWidth : 1 920 pixelsHeight : 1 080 pixelsDisplay aspect ratio : 16:9Frame rate : 25.000 fpsStandard : ComponentColor space : YUVChroma subsampling : 4:2:0Bit depth : 8 bitsScan type : InterlacedScan order : Top Field FirstBits/(Pixel*Frame) : 0.153Stream size : 166 MiB (88%)Color primaries : BT.601 PALTransfer characteristics : BT.470 System B, BT.470 System GMatrix coefficients : BT.601

Audio #1ID : 4352 (0x1100)Menu ID : 1 (0x1)Format : AC-3Format/Info : Audio Coding 3Mode extension : CM (complete main)Format settings, Endianness : BigCodec ID : 129Duration : 2mn 55sBit rate mode : ConstantBit rate : 384 KbpsChannel(s) : 2 channelsChannel positions : Front: L RSampling rate : 48.0 KHzBit depth : 16 bitsCompression mode : LossyDelay relative to video : -224msStream size : 8.03 MiB (4%)Language : French

Audio #2ID : 4353 (0x1101)Menu ID : 1 (0x1)Format : AC-3Format/Info : Audio Coding 3Mode extension : CM (complete main)Format settings, Endianness : BigCodec ID : 129Duration : 2mn 55sBit rate mode : ConstantBit rate : 256 KbpsChannel(s) : 2 channelsChannel positions : Front: L RSampling rate : 48.0 KHzBit depth : 16 bitsCompression mode : LossyDelay relative to video : -224msStream size : 5.36 MiB (3%)Language : qaa

GeneralID : 1 (0x1)Complete name : C:\Users\admin\Desktop\Stromae - NRJ Music Awards 2013 - 1080i\Stromae - Papaoutai (NRJ Music Awards 2013).tsFormat : MPEG-TSFile size : 469 MiBDuration : 5mn 47sOverall bit rate mode : VariableOverall bit rate : 11.3 MbpsMaximum Overall bit rate : 35.5 Mbps

VideoID : 4113 (0x1011)Menu ID : 1 (0x1)Format : AVCFormat/Info : Advanced Video CodecFormat profile : High@L4.0Format settings, CABAC : YesFormat settings, ReFrames : 3 framesCodec ID : 27Duration : 5mn 47sBit rate mode : VariableBit rate : 10.1 MbpsMaximum bit rate : 40.0 MbpsWidth : 1 920 pixelsHeight : 1 080 pixelsDisplay aspect ratio : 16:9Frame rate : 25.000 fpsStandard : ComponentColor space : YUVChroma subsampling : 4:2:0Bit depth : 8 bitsScan type : InterlacedScan order : Top Field FirstBits/(Pixel*Frame) : 0.195Stream size : 419 MiB (89%)Color primaries : BT.601 PALTransfer characteristics : BT.470 System B, BT.470 System GMatrix coefficients : BT.601

Audio #1ID : 4352 (0x1100)Menu ID : 1 (0x1)Format : AC-3Format/Info : Audio Coding 3Mode extension : CM (complete main)Format settings, Endianness : BigCodec ID : 129Duration : 5mn 47sBit rate mode : ConstantBit rate : 384 KbpsChannel(s) : 2 channelsChannel positions : Front: L RSampling rate : 48.0 KHzBit depth : 16 bitsCompression mode : LossyDelay relative to video : -216msStream size : 15.9 MiB (3%)Language : French

Audio #2ID : 4353 (0x1101)Menu ID : 1 (0x1)Format : AC-3Format/Info : Audio Coding 3Mode extension : CM (complete main)Format settings, Endianness : BigCodec ID : 129Duration : 5mn 47sBit rate mode : ConstantBit rate : 256 KbpsChannel(s) : 2 channelsChannel positions : Front: L RSampling rate : 48.0 KHzBit depth : 16 bitsCompression mode : LossyDelay relative to video : -216msStream size : 10.6 MiB (2%)Language : qaa


Трекер:  [ 29-Дек-2013 13:32 ]

  

Скачать .torrent

Размер .torrent файла 13 KB


Размер: 658 MB
Хэш (hash) релиза: 05f9149fca82797a9e36e9a203f2fcd8e9dae21c

Еще никто не оставлял запись к записи скачать торрент Stromae - Papaoutai & Formidable . Будь первым!

!Обратная связь