Скачать через торрент музыку Всё или ничего The Longest Yard - бесплатно без регистрации torrent

Если у вас наблюдаются проблемы со скриншотами, переходом по ссылками, скачиванием торрентов - проблемы в блокировщике рекламы AdBlock. #хорошегоДня!


Статистика раздачи
Размер:  359 MB   |    Зарегистрирован:  6 лет 7 месяцев   |    .torrent скачан:  46 раз   |   
Раздают:  1  
   
Загрузка...
 
Автор Сообщение

Phoenix

avatar Phoenix


Всё или ничего / The Longest Yard (Various Artists)

Жанр: Soundtrack
Год: 2005
Аудио кодек: FLAC
Тип рипа: tracks+.cue
Битрейт аудио: lossless
Продолжительность: 53:09

Трэклист:
01. Nelly - Errtime
02. Lil' Wayne - Shorty Bounce
03. T.I. - Bounce Like This
04. Ali & Gipp - Let 'Em Fight
05. Murphy Lee - Stomp
06. Akon - So Fly
07. 216 - U Should Know
08. WC - Whip Yo Ass
09. Chamillionaire & David Banner - Talking That Talk
10. Taylor Made - Datz On My Mama
11. Trillville - Infultrate
12. D12 - My Ballz
13. Nelly - Fly Away
Exact Audio Copy V0.99 prebeta 3 from 28. July 2007
EAC extraction logfile from 16. December 2009, 22:09
Various Artists / The Longest Yard Soundtrack
Used drive : PBDS DVD+-RW DS-8W1P Adapter: 0 ID: 0
Read mode : Secure
Utilize accurate stream : Yes
Defeat audio cache : Yes
Make use of C2 pointers : No
Read offset correction : 594
Overread into Lead-In and Lead-Out : No
Fill up missing offset samples with silence : Yes
Delete leading and trailing silent blocks : No
Null samples used in CRC calculations : Yes
Used interface : Native Win32 interface for Win NT & 2000
Gap handling : Appended to previous track
Used output format : User Defined Encoder
Selected bitrate : 320 kBit/s
Quality : High
Add ID3 tag : No
Command line compressor : C:\Program Files\Exact Audio Copy\Flac\flac.exe
Additional command line options : -V -8 -T "artist=%a" -T "title=%t" -T "album=%g" -T "date=%y" -T "tracknumber=%n" -T "genre=%m" %s
TOC of the extracted CD
Track | Start | Length | Start sector | End sector
---------------------------------------------------------
1 | 0:00.00 | 4:09.38 | 0 | 18712
2 | 4:09.38 | 4:06.70 | 18713 | 37232
3 | 8:16.33 | 4:48.40 | 37233 | 58872
4 | 13:04.73 | 3:35.42 | 58873 | 75039
5 | 16:40.40 | 4:25.69 | 75040 | 94983
6 | 21:06.34 | 3:44.33 | 94984 | 111816
7 | 24:50.67 | 4:10.54 | 111817 | 130620
8 | 29:01.46 | 3:14.01 | 130621 | 145171
9 | 32:15.47 | 3:56.45 | 145172 | 162916
10 | 36:12.17 | 4:52.03 | 162917 | 184819
11 | 41:04.20 | 3:28.46 | 184820 | 200465
12 | 44:32.66 | 4:26.08 | 200466 | 220423
13 | 48:58.74 | 4:08.47 | 220424 | 239070
Track 1
Filename C:\Users\Jeremy\Desktop\EAC Rip\01 Errtime.wav
Pre-gap length 0:00:02.00
Peak level 99.9 %
Track quality 100.0 %
Test CRC 46EBF08B
Copy CRC 46EBF08B
Track not present in AccurateRip database
Copy OK
Track 2
Filename C:\Users\Jeremy\Desktop\EAC Rip\02 Shorty Bounce.wav
Peak level 99.9 %
Track quality 100.0 %
Test CRC 0A7365D7
Copy CRC 0A7365D7
Track not present in AccurateRip database
Copy OK
Track 3
Filename C:\Users\Jeremy\Desktop\EAC Rip\03 Bounce Like This.wav
Peak level 99.9 %
Track quality 99.9 %
Test CRC F466DFE1
Copy CRC F466DFE1
Track not present in AccurateRip database
Copy OK
Track 4
Filename C:\Users\Jeremy\Desktop\EAC Rip\04 Let 'em Fight.wav
Peak level 99.9 %
Track quality 100.0 %
Test CRC 18CCA2C0
Copy CRC 18CCA2C0
Track not present in AccurateRip database
Copy OK
Track 5
Filename C:\Users\Jeremy\Desktop\EAC Rip\05 Stomp.wav
Peak level 99.9 %
Track quality 100.0 %
Test CRC 66F759C2
Copy CRC 66F759C2
Track not present in AccurateRip database
Copy OK
Track 6
Filename C:\Users\Jeremy\Desktop\EAC Rip\06 So Fly.wav
Peak level 99.9 %
Track quality 99.9 %
Test CRC B877308D
Copy CRC B877308D
Track not present in AccurateRip database
Copy OK
Track 7
Filename C:\Users\Jeremy\Desktop\EAC Rip\07 U Should Know.wav
Peak level 99.9 %
Track quality 99.9 %
Test CRC F371E69A
Copy CRC F371E69A
Track not present in AccurateRip database
Copy OK
Track 8
Filename C:\Users\Jeremy\Desktop\EAC Rip\08 Whip Yo Ass.wav
Peak level 99.9 %
Track quality 100.0 %
Test CRC 935E27C1
Copy CRC 935E27C1
Track not present in AccurateRip database
Copy OK
Track 9
Filename C:\Users\Jeremy\Desktop\EAC Rip\09 Talking That Talk.wav
Peak level 99.9 %
Track quality 100.0 %
Test CRC FEFEB2A5
Copy CRC FEFEB2A5
Track not present in AccurateRip database
Copy OK
Track 10
Filename C:\Users\Jeremy\Desktop\EAC Rip\10 Datz on My Mama.wav
Peak level 99.9 %
Track quality 100.0 %
Test CRC 87C9B72A
Copy CRC 87C9B72A
Track not present in AccurateRip database
Copy OK
Track 11
Filename C:\Users\Jeremy\Desktop\EAC Rip\11 Infultrate.wav
Peak level 99.9 %
Track quality 100.0 %
Test CRC 4F755DD4
Copy CRC 4F755DD4
Track not present in AccurateRip database
Copy OK
Track 12
Filename C:\Users\Jeremy\Desktop\EAC Rip\12 My Ballz.wav
Peak level 99.9 %
Track quality 100.0 %
Test CRC 547221FD
Copy CRC 547221FD
Track not present in AccurateRip database
Copy OK
Track 13
Filename C:\Users\Jeremy\Desktop\EAC Rip\13 Fly Away.wav
Peak level 99.9 %
Track quality 100.0 %
Test CRC 1ACC3BE3
Copy CRC 1ACC3BE3
Track not present in AccurateRip database
Copy OK
None of the tracks are present in the AccurateRip database
No errors occurred
End of status report
REM GENRE Soundtrack
REM DATE 2005
REM DISCID BD0C730D
REM COMMENT "ExactAudioCopy v0.99pb3"
FILE "01 Errtime.wav" WAVE
TRACK 01 AUDIO
INDEX 01 00:00:00
FILE "02 Shorty Bounce.wav" WAVE
TRACK 02 AUDIO
INDEX 01 00:00:00
FILE "03 Bounce Like This.wav" WAVE
TRACK 03 AUDIO
INDEX 01 00:00:00
FILE "04 Let 'em Fight.wav" WAVE
TRACK 04 AUDIO
INDEX 01 00:00:00
FILE "05 Stomp.wav" WAVE
TRACK 05 AUDIO
INDEX 01 00:00:00
FILE "06 So Fly.wav" WAVE
TRACK 06 AUDIO
INDEX 01 00:00:00
FILE "07 U Should Know.wav" WAVE
TRACK 07 AUDIO
INDEX 01 00:00:00
FILE "08 Whip Yo Ass.wav" WAVE
TRACK 08 AUDIO
INDEX 01 00:00:00
FILE "09 Talking That Talk.wav" WAVE
TRACK 09 AUDIO
INDEX 01 00:00:00
FILE "10 Datz on My Mama.wav" WAVE
TRACK 10 AUDIO
INDEX 01 00:00:00
FILE "11 Infultrate.wav" WAVE
TRACK 11 AUDIO
INDEX 01 00:00:00
FILE "12 My Ballz.wav" WAVE
TRACK 12 AUDIO
INDEX 01 00:00:00
FILE "13 Fly Away.wav" WAVE
TRACK 13 AUDIO
INDEX 01 00:00:00


Трекер:  [ 28-Янв-2011 16:19 ]

  

Скачать .torrent

Размер .torrent файла 15 KB


Размер: 359 MB
Хэш (hash) релиза: 32a41e61a382c9d5317b5f7d20e62e08e5bef67b

Торренты, похожие на Всё или ничего The Longest Yard - скачать торрент

Форум Название Автор Размер S L Добавлен
Саундтреки к фильмам и мультфильмам (mp3) ·· (Soundtrack)Всё или ничего / The Longest Yard - (Various Artists) 2005, MP3, CBR 320 kbps Phoenix 127549393122 MB 0 0 1296220252

16:10

28-Янв-11

Саундтреки к фильмам и мультфильмам (mp3) ·· (Soundtrack) Всё или ничего / The Longest Yard - 2005, MP3 Mos 7296409670 MB 0 0 1292268116

22:21

13-Дек-10

Комедиант

Отчет лога извлечения и .cue нет?

Хотите добавить комментарий к записи скачать торрент Всё или ничего The Longest Yard -

!Обратная связь