Скачать через торрент музыку Clay Pitts Orchestra бесплатно без регистрации torrent

Если у вас наблюдаются проблемы со скриншотами, переходом по ссылками, скачиванием торрентов - проблемы в блокировщике рекламы AdBlock. #хорошегоДня!


Статистика раздачи
Размер:  218 MB   |    Зарегистрирован:  6 лет 7 месяцев   |    .torrent скачан:  43 раза   |   
Раздают:  1  
   
Загрузка...
 
Автор Сообщение

Комедиант

avatar Комедиант


Clay Pitts Orchestra
Female Animal
(featuring Arlene Tiger)

Жанр: Score
Год выпуска диска: 1970 (2000)
Производитель диска: Italy (Vintage Classic Series VCS 006)
Аудио кодек: APE
Тип рипа: image+.cue
Битрейт аудио: lossless
Продолжительность: 40:45
Автор оригинальной раздачи: Giallo (Hqshare)

Трэклист:
01. Angelique (3:23)
02. Tiger Theme (Main Titles) (2:32)
03. Summer Theme (3:25)
04. Female Animal (Part 1) [Sung By Arlene Tiger] (2:14)
05. Rape Theme (1:41)
06. Caribbean Sunset (2:48)
07. Summer Love (Reprise) (4:16)
08. Traveling Theme (1:29)
09. Love Scene Between Count And Francesca (2:39)
10. Walk That Kat (3:03)
11. Caribbean Sunrise (3:04)
12. Francesca's Theme (2:11)
13. Female Animal (Part 1) Instr. (2:37)
14. Angelique & Tiger Theme (Reprise) (5:22)
 
Exact Audio Copy V0.99 prebeta 4 from 23. January 2008

EAC extraction logfile from 10. June 2009, 21:56

Clay Pitts Orchestra / Female Animal

Used drive : Optiarc DVD RW AD-7540A Adapter: 0 ID: 0

Read mode : SecureUtilize accurate stream : YesDefeat audio cache : YesMake use of C2 pointers : No

Read offset correction : 48Overread into Lead-In and Lead-Out : NoFill up missing offset samples with silence : YesDelete leading and trailing silent blocks : NoNull samples used in CRC calculations : YesUsed interface : Native Win32 interface for Win NT & 2000

Used output format : User Defined EncoderSelected bitrate : 320 kBit/sQuality : HighAdd ID3 tag : NoCommand line compressor : C:\Programas\Exact Audio Copy\wapet.exeAdditional command line options : %d -t "Artist=%a" -t "Title=%t" -t "Album=%g" -t "Year=%y" -t "Track=%n" -t "Genre=%m" "C:\Programas\Monkey's Audio\MAC.exe" %s %d -c2000

TOC of the extracted CD

Track | Start | Length | Start sector | End sector --------------------------------------------------------- 1 | 0:00.00 | 3:22.52 | 0 | 15201 2 | 3:22.52 | 2:31.73 | 15202 | 26599 3 | 5:54.50 | 3:25.33 | 26600 | 42007 4 | 9:20.08 | 2:14.00 | 42008 | 52057 5 | 11:34.08 | 1:40.60 | 52058 | 59617 6 | 13:14.68 | 2:48.36 | 59618 | 72253 7 | 16:03.29 | 4:16.12 | 72254 | 91465 8 | 20:19.41 | 1:28.39 | 91466 | 98104 9 | 21:48.05 | 2:39.03 | 98105 | 110032 10 | 24:27.08 | 3:02.73 | 110033 | 123755 11 | 27:30.06 | 3:04.33 | 123756 | 137588 12 | 30:34.39 | 2:11.10 | 137589 | 147423 13 | 32:45.49 | 2:37.31 | 147424 | 159229 14 | 35:23.05 | 5:21.71 | 159230 | 183375

Range status and errors

Selected range

Filename E:\My_Music\@EAC\Clay Pitts Orchestra - Female Animal\Clay Pitts Orchestra - Female Animal.wav

Peak level 97.7 % Range quality 99.9 % Copy CRC C54BE66D Copy OK

No errors occurred

AccurateRip summary

Track 1 not present in databaseTrack 2 not present in databaseTrack 3 not present in databaseTrack 4 not present in databaseTrack 5 not present in databaseTrack 6 not present in databaseTrack 7 not present in databaseTrack 8 not present in databaseTrack 9 not present in databaseTrack 10 not present in databaseTrack 11 not present in databaseTrack 12 not present in databaseTrack 13 not present in databaseTrack 14 not present in database

None of the tracks are present in the AccurateRip database

End of status report
 
auCDtect: CD records authenticity detector, version 0.8.2Copyright (c) 2004 Oleg Berngardt. All rights reserved.Copyright (c) 2004 Alexander Djourik. All rights reserved.------------------------------------------------------------Processing file: [Clay Pitts Orchestra - Female Animal.wav]Detected average hi-boundary frequency: 2.035008e+004 HzDetected average lo-boundary frequency: 1.360822e+004 HzDetected average hi-cut frequency: 2.135118e+004 HzDetected average lo-cut frequency: 1.639769e+004 HzMaximum probablis boundary frequency: 2.189100e+004 HzCoefficient of nonlinearity of a phase: 1.970548e-001First order smothness: 4.253800e-001Second order smothness: 8.327192e-001

------------------------------------------------------------This track looks like CDDA with probability 100%


Трекер:  [ 27-Янв-2011 16:08 ]

  

Скачать .torrent

Размер .torrent файла 18 KB


Размер: 218 MB
Хэш (hash) релиза: c906e361fd7388d8037525ee48a8c7f864583652

Еще никто не оставлял запись к записи скачать торрент Clay Pitts Orchestra . Будь первым!

!Обратная связь