Скачать через торрент музыку Red Planet | Красная Планета бесплатно без регистрации torrent

Если у вас наблюдаются проблемы со скриншотами, переходом по ссылками, скачиванием торрентов - проблемы в блокировщике рекламы AdBlock. #хорошегоДня!


Статистика раздачи
Размер:  357 MB   |    Зарегистрирован:  6 лет 10 месяцев   |    .torrent скачан:  89 раз   |   
Раздают:  1  
   
Загрузка...
 
Автор Сообщение

Комедиант

avatar Комедиант


Red Planet | Красная Планета
Жанр: Soundtrack
Год выпуска диска: 2002
Производитель диска: USA
Аудио кодек: FLAC
Тип рипа: tracks+.cue
Битрейт аудио: lossless
Продолжительность: 56:26

Трэклист:

01. Peter Gabriel - The Tower That Ate People
02. Emma Shapplin - The Inferno
03. Sting - A Thousand Years
04. Graeme Revell - Mars Red Planet
05. Emma Shapplin - The Fifth Heaven
06. Strange Cargo - MontokPoint
07. Emma Shapplin - Canto XXX
08. Graeme Revell - Alone
09. Melissa Kaplan and Graeme Revell - Dante's Eternal Flame
10. Graeme Revell - Crash Landing
11. Peter Gabriel - The Tower That Ate People (Remix)
12. Different Gear Vs. The Police - When The World Is Running Down [You Can't Go Wrong]

Код:

Exact Audio Copy V0.99 prebeta 5 from 4. May 2009

EAC extraction logfile from 9. November 2009, 15:51

Various Artists / Red Planet

Used drive : Optiarc DVD RW AD-7170A Adapter: 0 ID: 0

Read mode : Secure
Utilize accurate stream : Yes
Defeat audio cache : Yes
Make use of C2 pointers : No

Read offset correction : 48
Overread into Lead-In and Lead-Out : No
Fill up missing offset samples with silence : Yes
Delete leading and trailing silent blocks : No
Null samples used in CRC calculations : Yes
Used interface : Native Win32 interface for Win NT & 2000
Gap handling : Appended to previous track

Used output format : User Defined Encoder
Selected bitrate : 320 kBit/s
Quality : High
Add ID3 tag : No
Command line compressor : C:\Program Files\Exact Audio Copy\Flac\flac.exe
Additional command line options : -8 -V -T "ARTIST=%a" -T "TITLE=%t" -T "ALBUM=%g" -T "DATE=%y" -T "TRACKNUMBER=%n" -T "GENRE=%m" -T "COMMENT=EAC FLAC -8" %s

TOC of the extracted CD

 Track | Start | Length | Start sector | End sector
---------------------------------------------------------
1 | 0:00.00 | 4:05.15 | 0 | 18389
2 | 4:05.15 | 4:31.20 | 18390 | 38734
3 | 8:36.35 | 5:57.07 | 38735 | 65516
4 | 14:33.42 | 3:25.43 | 65517 | 80934
5 | 17:59.10 | 4:53.20 | 80935 | 102929
6 | 22:52.30 | 7:13.62 | 102930 | 135466
7 | 30:06.17 | 5:11.45 | 135467 | 158836
8 | 35:17.62 | 2:13.00 | 158837 | 168811
9 | 37:30.62 | 3:40.10 | 168812 | 185321
10 | 41:10.72 | 5:13.05 | 185322 | 208801
11 | 46:24.02 | 6:27.30 | 208802 | 237856
12 | 52:51.32 | 3:35.00 | 237857 | 253981

Track 1

 Filename E:\DownLoad\SoundTrack_Red Planet\01. Peter Gabriel - The Tower That Ate People.wav

 Pre-gap length 0:00:02.00

 Peak level 91.6 %
Track quality 99.9 %
Test CRC C218EF60
Copy CRC C218EF60
Copy OK

Track 2

 Filename E:\DownLoad\SoundTrack_Red Planet\02. Emma Shapplin - The Inferno.wav

 Peak level 97.2 %
Track quality 100.0 %
Test CRC 530DD0EA
Copy CRC 530DD0EA
Copy OK

Track 3

 Filename E:\DownLoad\SoundTrack_Red Planet\03. Sting - A Thousand Years.wav

 Peak level 92.1 %
Track quality 100.0 %
Test CRC 98797B9E
Copy CRC 98797B9E
Copy OK

Track 4

 Filename E:\DownLoad\SoundTrack_Red Planet\04. Graeme Revell - Mars Red Planet.wav

 Peak level 97.2 %
Track quality 100.0 %
Test CRC A1790D12
Copy CRC A1790D12
Copy OK

Track 5

 Filename E:\DownLoad\SoundTrack_Red Planet\05. Emma Shapplin - The Fifth Heaven.wav

 Peak level 97.2 %
Track quality 100.0 %
Test CRC ACD98A00
Copy CRC ACD98A00
Copy OK

Track 6

 Filename E:\DownLoad\SoundTrack_Red Planet\06. Strange Cargo - MontokPoint.wav

 Peak level 96.0 %
Track quality 100.0 %
Test CRC 96805B63
Copy CRC 96805B63
Copy OK

Track 7

 Filename E:\DownLoad\SoundTrack_Red Planet\07. Emma Shapplin - Canto XXX.wav

 Peak level 96.8 %
Track quality 100.0 %
Test CRC F5113093
Copy CRC F5113093
Copy OK

Track 8

 Filename E:\DownLoad\SoundTrack_Red Planet\08. Graeme Revell - Alone.wav

 Peak level 97.1 %
Track quality 100.0 %
Test CRC 67E871FD
Copy CRC 67E871FD
Copy OK

Track 9

 Filename E:\DownLoad\SoundTrack_Red Planet\09. Melissa Kaplan & Graeme Revell - Dante's Eternal Flame.wav

 Peak level 97.2 %
Track quality 99.9 %
Test CRC 5052EE5B
Copy CRC 5052EE5B
Copy OK

Track 10

 Filename E:\DownLoad\SoundTrack_Red Planet\10. Graeme Revell - Crash Landing.wav

 Peak level 97.0 %
Track quality 100.0 %
Test CRC 65CC933C
Copy CRC 65CC933C
Copy OK

Track 11

 Filename E:\DownLoad\SoundTrack_Red Planet\11. Peter Gabriel - The Tower That Ate People (Remix).wav

 Peak level 97.2 %
Track quality 100.0 %
Test CRC 05A2018D
Copy CRC 05A2018D
Copy OK

Track 12

 Filename E:\DownLoad\SoundTrack_Red Planet\12. Different Gear vs The Police - When the World Is Running Down (You Can't Go Wrong).wav

 Pre-gap length 0:00:01.16

 Peak level 92.0 %
Track quality 100.0 %
Test CRC DDE3C19D
Copy CRC DDE3C19D
Copy OK

No errors occurred

End of status report

Весь материал, представленный в этом релизе, предназначен исключительно для ознакомления!..
Приобретайте, пожалуйста, легальные диски, которые вне всякого сомнения станут достойным украшением Вашей коллекции!
В соответствие с ФЗ "Об авторском праве и смежных правах", Вы должны удалить все вышеозначенные трэки со своего жесткого диска и иных носителей сразу после ознакомления.


Трекер:  [ 27-Янв-2011 08:49 ]

  

Скачать .torrent

Размер .torrent файла 15 KB


Размер: 357 MB
Хэш (hash) релиза: 03651e2b542118d9f1a1fb1bd8777e49a05e905c

Торренты, похожие на Red Planet | Красная Планета скачать торрент

Форум Название Автор Размер S L Добавлен
Саундтреки ·· (Score) Красная Планета / Red Planet (Promo Score) (by Graeme Revell) - 2000, MP3, 320 kbps Centner1 8679016383 MB 0 0 1340857020

07:17

28-Июн-12

Еще никто не оставлял запись к записи скачать торрент Red Planet | Красная Планета . Будь первым!

!Обратная связь