Скачать через торрент музыку Michael Nyman - The Piano Пианино - 1993, FLAC бесплатно без регистрации torrent

Если у вас наблюдаются проблемы со скриншотами, переходом по ссылками, скачиванием торрентов - проблемы в блокировщике рекламы AdBlock. #хорошегоДня!


Статистика раздачи
Размер:  290 MB   |    Зарегистрирован:  6 лет 7 месяцев   |    .torrent скачан:  61 раз   |   
Раздают:  1  
   
Загрузка...
 
Автор Сообщение

Комедиант

avatar Комедиант


Michael Nyman - The Piano (Original Music From The Film By Jane Campion)

Жанр: Score
Год выпуска диска: 1993
Производитель диска: USA / Label: Virgin Records
Аудио кодек: FLAC
Тип рипа: image+.cue
Битрейт аудио: lossless
Продолжительность: 57:24
Трэклист:
01. To the Edge of the Earth
02. Big My Secret
03. Wild and Distant Shore
04. Heart Asks Pleasure First
05. Here to There
06. Promise
07. Bed of Ferns
08. Fling
09. Scent of Love
10. Deep into the Forest
11. Mood That Passes Through You
12. Lost and Found
13. Embrace
14. Little Impulse
15. Sacrifice
16. I Clipped Your Wing
17. Wounded
18. All Imperfect Things
19. Dreams of a Journe
Дополнительная информация: Сканы 300 jpg

Код:

Exact Audio Copy V0.99 prebeta 4 from 23. January 2008

Отчёт EAC об извлечении, выполненном 13. августа 2009, 21:03

Michael Nyman / The Piano: Original Music From The Film By Jane Campion

Дисковод: TSSTcorpCDDVDW SH-S202J Adapter: 1 ID: 1

Режим чтения : Достоверность
Использование точного потока : Да
Отключение кэша аудио : Да
Использование указателей C2 : Нет

Коррекция смещения при чтении : 6
Способность читать области Lead-in и Lead-out : Нет
Заполнение пропущенных сэмплов тишиной : Да
Удаление блоков с тишиной в начале и конце : Нет
При вычислениях CRC использовались нулевые сэмплы : Да
Интерфейс : Установленный внешний ASPI-интерфейс

Выходной формат : Внутренние WAV-операции
Формат сэмплов : 44.100 Гц; 16 бит; стерео

TOC извлечённого CD

 Трек | Старт | Длительность | Начальный сектор | Конечный сектор
---------------------------------------------------------------------
1 | 0:00.00 | 4:05.57 | 0 | 18431
2 | 4:05.57 | 2:52.50 | 18432 | 31381
3 | 6:58.32 | 5:52.23 | 31382 | 57804
4 | 12:50.55 | 1:36.42 | 57805 | 65046
5 | 14:27.22 | 1:02.13 | 65047 | 69709
6 | 15:29.35 | 4:16.30 | 69710 | 88939
7 | 19:45.65 | 0:48.32 | 88940 | 92571
8 | 20:34.22 | 1:29.43 | 92572 | 99289
9 | 22:03.65 | 4:18.42 | 99290 | 118681
10 | 26:22.32 | 3:00.63 | 118682 | 132244
11 | 29:23.20 | 1:14.27 | 132245 | 137821
12 | 30:37.47 | 2:27.00 | 137822 | 148846
13 | 33:04.47 | 2:36.68 | 148847 | 160614
14 | 35:41.40 | 2:12.52 | 160615 | 170566
15 | 37:54.17 | 2:50.30 | 170567 | 183346
16 | 40:44.47 | 4:36.48 | 183347 | 204094
17 | 45:21.20 | 2:30.02 | 204095 | 215346
18 | 47:51.22 | 4:03.60 | 215347 | 233631
19 | 51:55.07 | 5:29.53 | 233632 | 258359

Характеристики диапазона извлечения и сообщения об ошибках

Выбранный диапазон

 Имя файла E:\РОЗДАЧА\Michael Nyman - The Piano Original Music From The Film By Jane Campion.wav

 Пиковый уровень 97.7 %
Качество диапазона 100.0 %
CRC теста 89E1CA82
CRC копии 89E1CA82
Копирование... OK

Ошибок не произошло

Конец отчёта


Трекер:  [ 27-Янв-2011 08:28 ]

  

Скачать .torrent

Размер .torrent файла 12 KB


Размер: 290 MB
Хэш (hash) релиза: a2978602db6a046b0219df0fb1f2f0ad690566d0

Торренты, похожие на Michael Nyman - The Piano Пианино - 1993, FLAC скачать торрент

Форум Название Автор Размер S L Добавлен
Саундтреки к фильмам и мультфильмам (lossless) ·· (Score) Пианино / The Piano — Original Music from the Film by Jane Campion — Michael Nyman — 1993, FLAC (tracks+.cue), lossless Galfimbul 304801411291 MB 0 0 1292268497

22:28

13-Дек-10

Еще никто не оставлял запись к записи скачать торрент Michael Nyman - The Piano Пианино - 1993, FLAC . Будь первым!

!Обратная связь